Родион Щедрин - Конек-Горбунок (Алексей Ратманский, Валерий Гергиев) / Rodion Shchedrin - Le Petit Cheval Bossu (Alexei Ratmansky, Valery Gergiev) [2013, ballet, HDTVRip]


 

[Цитировать]

Конек-Горбунок / Le Petit Cheval Bossu / The Little Humpbacked Horse
Год выпуска: 2014
Лейбл: Mariinsky Theatre, Mezzo
Страна-производитель: Россия
Жанр: ballet
Продолжительность: 01:48:14
Композитор: Родион Щедрин / Rodion Shchedrin
Дирижер: Валерий Гергиев / Valery Gergiev
Исполнители музыки: Оркестр Мариинского театра / Orchestre du Theatre du Mariinsky
Режиссер/Хореограф: Алексей Ратманский / Alexei Ratmansky
Исполнители:
Владимир Шкляров (Иван-дурак),
Алина Сомова (Царь-девица),
Владислав Шумаков (Конек-Горбунок),
Ислом Баймурадов (Спальник),
Андрей Иванов (Царь),
Анастасия Петушкова (Кобылица),
Юрий Смекалов, Камиль Янгуразов (Кони)
Владимир Пономарев (Старик)
Константин Зверев (Данило)
Иван Ситников (Гаврило)
Цыганский танец:
Ольга Белик, Мария Аджамова, Мария Лебедева, Ольга Куликова-Громова, Екатерина Иванникова,
Антон Пимонов, Федор Мурашов, Карен Иоаннисян
Морские жители:
Нелли Смирнова, София Иванова-Скобликова, Ксения Ромашова, Маргарита Фролова, Светлана Иванова, Анастасия Никитина.
Описание: Балет в 2 действиях 8 картинах с прологом и эпилогом
Доп. информация:
Запись 25 и 27 ноября 2013
Рип alex7, за что ему огромное спасибо
Качество видео: HDTVRip
Формат/Контейнер: MKV
Видео кодек: H.264
Аудио кодек: MP3
Видео поток: MPEG4 Video (H264) 1920x1080 25.00fps 5836 Kbps
Аудио поток: MPEG Audio Layer 3 48000Hz stereo 256kbps

Mediainfo

Format : Matroska
File size : 4.70 GiB
Duration : 1h 48mn
Overall bit rate : 6 215 Kbps
Writing application : Lavf51.12.1
Writing library : Lavf51.12.1
Video
ID : 1
Format : AVC
Format/Info : Advanced Video Codec
Format profile : Baseline@L4.0
Format settings, CABAC : No
Format settings, ReFrames : 2 frames
Muxing mode : Container profile=Unknown@4.0
Codec ID : V_MPEG4/ISO/AVC
Duration : 1h 48mn
Bit rate : 5 836 Kbps
Width : 1 920 pixels
Height : 1 080 pixels
Display aspect ratio : 16:9
Frame rate : 25.000 fps
Standard : PAL
Color space : YUV
Chroma subsampling : 4:2:0
Bit depth : 8 bits
Scan type : Progressive
Bits/(Pixel*Frame) : 0.113
Stream size : 4.41 GiB (94%)
Color primaries : BT.470-6 System B, BT.470-6 System G, BT.601-6 625, BT.1358 625, BT.1700 625 PAL, BT.1700 625 SECAM
Transfer characteristics : BT.470-6 System B, BT.470-6 System G
Matrix coefficients : BT.470-6 System B, BT.470-6 System G, BT.601-6 625, BT.1358 625, BT.1700 625 PAL, BT.1700 625 SECAM, IEC 61966-2-4 601
Audio
ID : 2
Format : MPEG Audio
Format version : Version 1
Format profile : Layer 3
Mode : Joint stereo
Codec ID : A_MPEG/L3
Codec ID/Hint : MP3
Duration : 1h 48mn
Bit rate mode : Constant
Bit rate : 256 Kbps
Channel(s) : 2 channels
Sampling rate : 48.0 KHz
Bit depth : 16 bits
Stream size : 198 MiB (4%)
Writing library : LAME3.97

Скриншоты




Показать сообщения:    

Текущее время: 05-Дек 07:30

Часовой пояс: UTC + 3


Вы не можете начинать темы
Вы не можете отвечать на сообщения
Вы не можете редактировать свои сообщения
Вы не можете удалять свои сообщения
Вы не можете голосовать в опросах
Вы не можете прикреплять файлы к сообщениям
Вы не можете скачивать файлы