AS'N - Yo Gee Ti [2012, Mourad Merzouki, Lyon Biennale de la danse, Ballet-modern, Sat stream 1080i]


 

[Цитировать]

Yo Gee Ti
(2012, Mourad Merzouki, Lyon Biennale de la danse)

Год выпуска: 25.09.2012
Страна-производитель: Франция
Жанр: Ballet-modern
Продолжительность: 01:09:02
Композитор: AS'N
Режиссер/Хореограф: Mourad Merzouki
Исполнители: Kader Belmoktar, Chen Hung-Ling, Bruce Chiefare, Sabri Colin, Erwan Godard, Hsien Yi-Chun, Kan Han-Hsin, Kao Hsin-Yu, Nicolas Sannier, Wu Chien-Wei
Треклист: Запись постановки на биеннале балета в Лионе 2012. Спутниковый поток без перекодирования.
Качество видео: Sat stream
Формат/Контейнер: TS
Видео кодек: H.264
Аудио кодек: MP2
Видео поток: 1920x1080i, 5386 Kbps, 25 fps
Аудио поток: MP2, 192 kbps, 48 kHz, 2.0

MediaInfo

General
ID : 1 (0x1)
Complete name : H:\mz dns Lyon 16e biennale de la danse\mz dnc (Mourad Merzouki) 'Yo Gee Ti' Lyon biennale 2012.ts
Format : MPEG-TS
File size : 2.83 GiB
Duration : 1h 9mn
Overall bit rate mode : Variable
Overall bit rate : 5 870 Kbps
Video
ID : 1604 (0x644)
Menu ID : 1 (0x1)
Format : AVC
Format/Info : Advanced Video Codec
Format profile : High@L4.0
Format settings, CABAC : Yes
Format settings, ReFrames : 3 frames
Codec ID : 27
Duration : 1h 9mn
Bit rate : 5 386 Kbps
Width : 1 920 pixels
Height : 1 080 pixels
Display aspect ratio : 16:9
Frame rate : 25.000 fps
Standard : Component
Color space : YUV
Chroma subsampling : 4:2:0
Bit depth : 8 bits
Scan type : Interlaced
Scan order : Top Field First
Bits/(Pixel*Frame) : 0.104
Stream size : 2.60 GiB (92%)
Color primaries : BT.709
Transfer characteristics : BT.709
Matrix coefficients : BT.709
Audio
ID : 2604 (0xA2C)
Menu ID : 1 (0x1)
Format : MPEG Audio
Format version : Version 1
Format profile : Layer 2
Codec ID : 3
Duration : 1h 9mn
Bit rate mode : Constant
Bit rate : 192 Kbps
Channel(s) : 2 channels
Sampling rate : 48.0 KHz
Compression mode : Lossy
Stream size : 94.8 MiB (3%)



Показать сообщения:    

Текущее время: 04-Дек 19:20

Часовой пояс: UTC + 3


Вы не можете начинать темы
Вы не можете отвечать на сообщения
Вы не можете редактировать свои сообщения
Вы не можете удалять свои сообщения
Вы не можете голосовать в опросах
Вы не можете прикреплять файлы к сообщениям
Вы не можете скачивать файлы