AS'N - Agwa [2008, Campanhia urbana de la danca, Mourad Merzouki, Lyon Biennale de la danse, Ballet-modern, Sat stream 1080i]


 

[Цитировать]

"Agwa", Campanhia urbana de la danca
(2008, Mourad Merzouki, Lyon Biennale de la danse)

Год выпуска: 2008
Страна-производитель: Франция
Жанр: Ballet-modern
Продолжительность: 00:26:43
Композитор: AS'N
Режиссер/Хореограф: Mourad Merzouki
Исполнители: Campanhia urbana de la danca
Треклист: Запись постановки на биеннале балета в Лионе 2008. Спутниковый поток без перекодирования.
Качество видео: Sat stream
Формат/Контейнер: TS
Видео кодек: H.264
Аудио кодек: MP2
Видео поток: 1920x1080i, 8586 Kbps, 25 fps
Аудио поток: MP2, 192 kbps, 48 kHz, 2.0

MediaInfo

General
ID : 1 (0x1)
Format : MPEG-TS
File size : 1.72 GiB
Duration : 26mn 43s
Overall bit rate mode : Variable
Overall bit rate : 9 236 Kbps
Video
ID : 1604 (0x644)
Menu ID : 1 (0x1)
Format : AVC
Format/Info : Advanced Video Codec
Format profile : High@L4.0
Format settings, CABAC : Yes
Format settings, ReFrames : 3 frames
Codec ID : 27
Duration : 26mn 43s
Bit rate : 8 586 Kbps
Width : 1 920 pixels
Height : 1 080 pixels
Display aspect ratio : 16:9
Frame rate : 25.000 fps
Standard : Component
Color space : YUV
Chroma subsampling : 4:2:0
Bit depth : 8 bits
Scan type : Interlaced
Scan order : Top Field First
Bits/(Pixel*Frame) : 0.166
Stream size : 1.60 GiB (93%)
Color primaries : BT.709
Transfer characteristics : BT.709
Matrix coefficients : BT.709
Audio
ID : 2604 (0xA2C)
Menu ID : 1 (0x1)
Format : MPEG Audio
Format version : Version 1
Format profile : Layer 2
Codec ID : 3
Duration : 26mn 43s
Bit rate mode : Constant
Bit rate : 192 Kbps
Channel(s) : 2 channels
Sampling rate : 48.0 KHz
Compression mode : Lossy
Stream size : 36.7 MiB (2%)



Показать сообщения:    

Текущее время: 03-Дек 16:45

Часовой пояс: UTC + 3


Вы не можете начинать темы
Вы не можете отвечать на сообщения
Вы не можете редактировать свои сообщения
Вы не можете удалять свои сообщения
Вы не можете голосовать в опросах
Вы не можете прикреплять файлы к сообщениям
Вы не можете скачивать файлы