Xavier Rosselle - La Confidence des Oiseaux (Luc Petton, Le Guetteur Company) / С уверенностью птиц (Люк Петтон) / In the Confidence of Birds [2012, Modern dance, HDTVRip]


 

[Цитировать]

С уверенностью птиц / La Confidence des Oiseaux / In the Confidence of Birds
Год выпуска: 2012
Лейбл: Le Guetteur Company
Страна-производитель: Франция
Жанр: Modern dance
Продолжительность: 00:54:50
Музыка: Xavier Rosselle
Режиссер/Хореограф: Люк Петтон / Luc Petton
Сценография: Jean-Paul Cealis
Костюмы: Raul Pajaro Gomez
Режиссер ТВ: Stephane Lebard
Исполнители:
Aurore Castan-Ain,
Melisande Carre Angeli,
Marie-Laure Agrapart,
Tuomas Lahti
Описание: Спектакль "С уверенностью птиц", показан 21 сентября 2012 в рамках 15-го танцевального фестиваля «Биеннале танца в Лионе - 2012».
Доп. информация: Рип alex7, за что ему огромное спасибо.
Качество видео: HDTVRip
Формат/Контейнер: MKV
Видео кодек: H.264
Аудио кодек: MP3
Видео поток: MPEG4 Video (H264) 1920x1080 25.00fps
Аудио поток: MPEG Audio Layer 3 48000Hz stereo 256 Kbps

Mediainfo

Format : Matroska
File size : 2.28 GiB
Duration : 54mn 50s
Overall bit rate : 5 953 Kbps
Writing application : Lavf51.12.1
Writing library : Lavf51.12.1
Video
ID : 1
Format : AVC
Format/Info : Advanced Video Codec
Format profile : Baseline@L4.0
Format settings, CABAC : No
Format settings, ReFrames : 2 frames
Muxing mode : Container profile=Unknown@4.0
Codec ID : V_MPEG4/ISO/AVC
Duration : 54mn 50s
Bit rate : 5 579 Kbps
Width : 1 920 pixels
Height : 1 080 pixels
Display aspect ratio : 16:9
Frame rate : 25.000 fps
Standard : PAL
Color space : YUV
Chroma subsampling : 4:2:0
Bit depth : 8 bits
Scan type : Progressive
Bits/(Pixel*Frame) : 0.108
Stream size : 2.14 GiB (94%)
Color primaries : BT.470-6 System B, BT.470-6 System G, BT.601-6 625, BT.1358 625, BT.1700 625 PAL, BT.1700 625 SECAM
Transfer characteristics : BT.470-6 System B, BT.470-6 System G
Matrix coefficients : BT.470-6 System B, BT.470-6 System G, BT.601-6 625, BT.1358 625, BT.1700 625 PAL, BT.1700 625 SECAM, IEC 61966-2-4 601
Audio
ID : 2
Format : MPEG Audio
Format version : Version 1
Format profile : Layer 3
Mode : Joint stereo
Codec ID : A_MPEG/L3
Codec ID/Hint : MP3
Duration : 54mn 50s
Bit rate mode : Constant
Bit rate : 256 Kbps
Channel(s) : 2 channels
Sampling rate : 48.0 KHz
Bit depth : 16 bits
Stream size : 100 MiB (4%)

Скриншоты




Показать сообщения:    

Текущее время: 10-Дек 13:51

Часовой пояс: UTC + 3


Вы не можете начинать темы
Вы не можете отвечать на сообщения
Вы не можете редактировать свои сообщения
Вы не можете удалять свои сообщения
Вы не можете голосовать в опросах
Вы не можете прикреплять файлы к сообщениям
Вы не можете скачивать файлы