Чародей танца. Махмуд Эсамбаев [1978 г., Фильм-концерт, SATRip]


 

[Цитировать]

Чародей танца. Махмуд Эсамбаев Год выпуска: 1978.
Жанр: Фильм-концерт.
Продолжительность: 00:25:01.
Танцевальные миниатюры исполняет народный артист СССР Махмуд Эсамбаев.
Описание:
О танцовщике Эсамбаеве великая балерина Галина Уланова сказала однажды: "Такие люди, как Махмуд Эсамбаев, встречаются раз, даже не знаю, во сколько лет. Он, по существу, так пластичен, так музыкален и так выразителен... что все, что он исполняет, никто другой не смог бы..."
Многие композиции он поставил себе сам, на сто пятьдесят процентов используя свой феноменальный от природы шаг, склонность к гротеску и редкого масштаба мужскую грацию. Выступая в одиночестве, Эсамбаев легко подчинял себе любую сценическую площадку, мастерски умел приковать к себе внимание и удержать его. Он создал авторский театр танца, в котором артисту не было и нет конкурентов. Зная законы эстрады, Эсамбаев выверял свои эффекты по секундомеру - и при этом захватывал невероятной силы экстазом. Все его номера становились шлягерами.

В программе: "Легенда о Чечено-Ингушетии", "Цыганский", "Автомат", "Испанский", "Танец павлина", "Русский", "Макумба", "Золотой Бог".
Дополнительная информация:
Страна: СССР .
Организатор концерта: Студия музукальных программ © ГТРК "Культура".
Релиз
Огромное спасибо Доброму человеку за предоставленый материал!!!
Качество видео:...SATRip
Формат:.................AVI
Видео:..704x528 (1.33:1), 25 fps, XviD MPEG-4 ~1977 kbps avg, 0.21 bit/pixel
Аудио:..48 kHz, MPEG Layer 3, 2 ch, ~192.00 kbps avg

Отчет MI

Общее
Полное имя : Charodej.tanca.Maxmud.Esambaev.1978.XviD.SATRip.fenixclub.avi
Формат : AVI
Формат/Информация : Audio Video Interleave
Размер файла : 390 Мбайт
Продолжительность : 25 м.
Общий поток : 2180 Кбит/сек
Программа кодирования : VirtualDubModRus 1.5.10.2 (build 2542/release)
Библиотека кодирования : VirtualDub build 34753/release
Видео
Идентификатор : 0
Формат : MPEG-4 Visual
Профиль формата : Advanced Simple@L5
Параметр BVOP формата : 2
Параметр QPel формата : Нет
Параметр GMC формата : Без точки перехода
Параметр матрицы формата : Default (H.263)
Режим смешивания : Сжатый битовый поток
Идентификатор кодека : XVID
Идентификатор кодека/Подсказка : XviD
Продолжительность : 25 м.
Битрейт : 1978 Кбит/сек
Ширина : 704 пикселя
Высота : 528 пикселей
Соотношение сторон : 4:3
Частота кадров : 25,000 кадров/сек
Цветовое пространство : YUV
Субдискретизация насыщенности : 4:2:0
Битовая глубина : 8 бит
Тип развёртки : Прогрессивная
Метод сжатия : С потерями
Бит/(Пиксели*Кадры) : 0.213
Размер потока : 354 Мбайт (91%)
Библиотека кодирования : XviD 1.2.1 (UTC 2008-12-04)
Аудио
Идентификатор : 1
Формат : MPEG Audio
Версия формата : Version 1
Профиль формата : Layer 3
Режим : Joint stereo
Расширение режима : MS Stereo
Идентификатор кодека : 55
Идентификатор кодека/Подсказка : MP3
Продолжительность : 25 м.
Вид битрейта : Постоянный
Битрейт : 192 Кбит/сек
Каналы : 2 канала
Частота : 48,0 КГц
Метод сжатия : С потерями
Размер потока : 34,4 Мбайт (9%)
Выравнивание : Разделение по промежуткам
Продолжительность промежутка : 40 мс. (1,00 видеокадр)
Время предзагрузки промежутка : 500 мс.

Скриншоты

Альтернативный хост




Показать сообщения:    

Текущее время: 03-Дек 03:20

Часовой пояс: UTC + 3


Вы не можете начинать темы
Вы не можете отвечать на сообщения
Вы не можете редактировать свои сообщения
Вы не можете удалять свои сообщения
Вы не можете голосовать в опросах
Вы не можете прикреплять файлы к сообщениям
Вы не можете скачивать файлы