Maurice Jarre - Roland Petit's Notre-Dame de Paris (Natalia Osipova, Roberto Bolle) • Морис Жарр - Ролан Пети - Собор Парижской Богоматери (Наталья Осипова, Роберто Болле)[2014, Ballet, Blu-ray]


 

[Цитировать]


ROLAND PETIT'S
Notre-Dame de Paris

Год выпуска: 2014
Жанр: Ballet
Продолжительность: 01:34:19+бонус
Музыка: Maurice Jarre
Хореограф: Roland Petit
Дирижер: Paul Connelly
Костюмы: Yves Saint-Laurent
Художник: RenU Allio-Recorded live at Teatro alla Scala, Milan, March 2013-Исполнители:
Esmeralda - Natalia Osipova
Quasimodo - Roberto Bolle
Frollo - Mick Zeni
Phoebus - Eris Nezha
Milan La Scala Ballet
Milan La Scala Orchestra
-Bonus:
- Behind the Curtain - Interviews with the cast and crew
- Cast Gallery
-Качество видео: Blu-ray
Формат/Контейнер: BDMV
Видео кодек: MPEG-4
Аудио кодек: DTS, PCM
Видео : MPEG-4 AVC Video / 25995 kbps / 1080i / 29,970 fps / 16:9 / High Profile 4.1
Аудио 1: Italian / LPCM Audio / 2.0 / 48 kHz / 2304 kbps / 24-bit
Аудио 2: Italian / DTS-HD Master Audio / 5.1 / 48 kHz / 4097 kbps / 24-bit (DTS Core: 5.1 / 48 kHz / 1509 kbps / 24-bit)
Субтитры: English

Отчёт MediaInfo / BDInfo

Disc Title: Maurice Jarre - Roland Petit's Notre-Dame de ParisDisc Size: 28 178 791 013 bytesProtection: AACSBD-Java: NoBDInfo: 0.5.8
Notes:
BDINFO HOME: Cinema Squid http://www.cinemasquid.com/blu-ray/tools/bdinfo
INCLUDES FORUMS REPORT FOR: AVS Forum Blu-ray Audio and Video Specifications Thread http://www.avsforum.com/avs-vb/showthread.php?t=1155731
********************PLAYLIST: 00000.MPLS********************
Total   Video
Title                                                           Codec   Length  Movie Size      Disc Size       Bitrate Bitrate Main Audio Track                          Secondary Audio Track
-----                                                           ------  ------- --------------  --------------  ------- ------- ------------------                        ---------------------
00000.MPLS                                                      AVC     1:34:19 24 174 225 408  28 178 791 013  34,17   25,99   LPCM 2.0 2304Kbps (48kHz/24-bit)          DTS-HD Master 5.1 4097Kbps (48kHz/24-bit)
DISC INFO:
Disc Title:     Maurice Jarre - Roland Petit's Notre-Dame de Paris
Disc Size:      28 178 791 013 bytes
Protection:     AACS
BD-Java:        No
BDInfo:         0.5.8
PLAYLIST REPORT:
Name:                   00000.MPLS
Length:                 1:34:19.086 (h:m:s.ms)
Size:                   24 174 225 408 bytes
Total Bitrate:          34,17 Mbps
VIDEO:
Codec                   Bitrate             Description
-----                   -------             -----------
MPEG-4 AVC Video        25995 kbps          1080i / 29,970 fps / 16:9 / High Profile 4.1
AUDIO:
Codec                           Language        Bitrate         Description
-----                           --------        -------         -----------
LPCM Audio                      Italian         2304 kbps       2.0 / 48 kHz / 2304 kbps / 24-bit
DTS-HD Master Audio             Italian         4097 kbps       5.1 / 48 kHz / 4097 kbps / 24-bit (DTS Core: 5.1 / 48 kHz / 1509 kbps / 24-bit)
FILES:
Name            Time In         Length          Size            Total Bitrate
----            -------         ------          ----            -------------
00301.M2TS      0:00:00.000     0:00:01.000     577 536         4 616
00000.M2TS      0:00:01.000     0:59:45.515     15 341 654 016  34 230
00001.M2TS      0:59:46.516     0:34:32.570     8 831 993 856   34 091
CHAPTERS:
Number          Time In         Length          Avg Video Rate  Max 1-Sec Rate  Max 1-Sec Time  Max 5-Sec Rate  Max 5-Sec Time  Max 10Sec Rate  Max 10Sec Time  Avg Frame Size  Max Frame Size  Max Frame Time
------          -------         ------          --------------  --------------  --------------  --------------  --------------  --------------  --------------  --------------  --------------  --------------
1               0:00:00.000     0:02:34.287     20 074 kbps     40 166 kbps     00:02:02.222    37 445 kbps     00:02:18.238    33 195 kbps     00:02:15.635    83 706 bytes    477 631 bytes   00:00:17.083
2               0:02:34.287     0:02:11.598     19 341 kbps     47 969 kbps     00:02:36.389    40 163 kbps     00:02:34.888    34 822 kbps     00:02:34.687    80 666 bytes    563 267 bytes   00:04:38.978
3               0:04:45.885     0:03:56.235     36 560 kbps     66 123 kbps     00:08:10.156    43 738 kbps     00:06:50.576    40 843 kbps     00:07:46.966    152 488 bytes   783 069 bytes   00:05:08.474
4               0:08:42.121     0:02:13.633     34 974 kbps     54 126 kbps     00:10:37.837    43 437 kbps     00:10:11.043    40 821 kbps     00:09:14.587    145 872 bytes   777 250 bytes   00:09:20.593
5               0:10:55.755     0:02:40.293     35 985 kbps     54 645 kbps     00:11:37.229    43 727 kbps     00:11:36.062    40 851 kbps     00:11:36.162    150 087 bytes   694 334 bytes   00:11:55.614
6               0:13:36.048     0:00:54.187     15 126 kbps     34 395 kbps     00:13:38.317    26 692 kbps     00:13:37.950    22 833 kbps     00:13:37.950    63 087 bytes    296 301 bytes   00:13:42.021
7               0:14:30.236     0:04:06.112     18 969 kbps     31 500 kbps     00:16:20.546    25 014 kbps     00:17:10.996    24 369 kbps     00:17:03.589    79 116 bytes    313 403 bytes   00:14:58.097
8               0:18:36.348     0:01:06.166     25 359 kbps     48 933 kbps     00:19:27.332    39 998 kbps     00:19:23.529    38 560 kbps     00:19:18.490    105 766 bytes   523 588 bytes   00:19:34.706
9               0:19:42.514     0:03:20.300     33 072 kbps     56 680 kbps     00:21:25.250    42 617 kbps     00:21:21.747    39 712 kbps     00:20:24.556    137 938 bytes   698 091 bytes   00:21:36.662
10              0:23:02.814     0:00:55.588     16 665 kbps     27 344 kbps     00:23:04.216    22 015 kbps     00:23:03.415    18 940 kbps     00:23:03.582    69 508 bytes    291 440 bytes   00:23:05.217
11              0:23:58.403     0:01:50.810     18 948 kbps     36 948 kbps     00:25:17.249    29 761 kbps     00:25:17.449    27 917 kbps     00:25:14.846    79 030 bytes    296 182 bytes   00:24:50.989
12              0:25:49.214     0:06:13.740     30 582 kbps     53 861 kbps     00:27:32.484    43 660 kbps     00:30:18.283    40 835 kbps     00:30:41.239    127 553 bytes   715 064 bytes   00:32:02.954
13              0:32:02.954     0:01:36.062     24 849 kbps     42 024 kbps     00:32:03.154    35 962 kbps     00:32:34.652    34 509 kbps     00:32:33.651    103 639 bytes   598 389 bytes   00:32:05.356
14              0:33:39.016     0:00:52.152     29 272 kbps     51 064 kbps     00:34:22.960    41 542 kbps     00:34:04.942    37 112 kbps     00:34:19.023    122 090 bytes   459 168 bytes   00:34:24.762
15              0:34:31.169     0:01:49.275     30 558 kbps     54 630 kbps     00:35:34.565    43 282 kbps     00:36:04.262    40 834 kbps     00:34:34.272    127 451 bytes   700 718 bytes   00:34:41.879
16              0:36:20.444     0:01:00.627     18 046 kbps     41 722 kbps     00:36:21.846    35 506 kbps     00:36:21.846    28 262 kbps     00:36:20.711    75 267 bytes    298 481 bytes   00:36:21.879
17              0:37:21.072     0:02:43.329     28 877 kbps     58 328 kbps     00:39:15.152    43 575 kbps     00:37:47.832    40 740 kbps     00:37:47.798    120 443 bytes   664 886 bytes   00:39:19.857
18              0:40:04.402     0:02:10.797     22 741 kbps     42 534 kbps     00:41:53.143    39 554 kbps     00:41:49.940    37 672 kbps     00:41:49.740    94 850 bytes    480 283 bytes   00:41:49.340
19              0:42:15.199     0:04:10.416     29 901 kbps     56 852 kbps     00:45:41.872    43 738 kbps     00:45:25.255    40 848 kbps     00:43:54.298    124 711 bytes   764 048 bytes   00:44:40.577
20              0:46:25.616     0:06:53.513     17 837 kbps     34 741 kbps     00:46:26.216    23 992 kbps     00:51:27.951    22 926 kbps     00:51:23.246    74 394 bytes    288 782 bytes   00:48:27.070
21              0:53:19.129     0:00:40.974     13 290 kbps     26 773 kbps     00:53:26.970    20 584 kbps     00:53:24.201    16 742 kbps     00:53:20.630    55 429 bytes    245 597 bytes   00:53:34.344
22              0:54:00.103     0:01:59.886     23 263 kbps     50 332 kbps     00:55:01.731    36 151 kbps     00:54:59.229    34 377 kbps     00:54:54.224    97 026 bytes    533 610 bytes   00:55:03.667
23              0:55:59.989     0:01:55.148     27 675 kbps     60 785 kbps     00:57:07.791    42 337 kbps     00:56:31.921    37 298 kbps     00:57:03.586    115 428 bytes   696 897 bytes   00:57:11.194
24              0:57:55.138     0:01:51.377     25 437 kbps     45 924 kbps     00:58:12.222    38 380 kbps     00:58:12.121    34 427 kbps     00:58:07.116    106 093 bytes   391 991 bytes   00:58:12.455
25              0:59:46.516     0:03:28.408     23 996 kbps     39 995 kbps     01:02:32.315    33 509 kbps     01:02:31.514    31 999 kbps     01:00:36.532    100 082 bytes   586 213 bytes   00:59:51.054
26              1:03:14.924     0:09:38.277     26 030 kbps     39 276 kbps     01:07:10.126    35 399 kbps     01:07:59.775    32 489 kbps     01:07:59.542    108 568 bytes   332 738 bytes   01:06:11.901
27              1:12:53.202     0:03:31.010     23 562 kbps     36 567 kbps     01:16:19.207    29 028 kbps     01:16:17.239    27 792 kbps     01:15:12.341    98 272 bytes    427 952 bytes   01:15:50.212
28              1:16:24.212     0:07:01.287     26 284 kbps     50 517 kbps     01:20:52.447    40 358 kbps     01:19:09.678    37 833 kbps     01:20:50.946    109 628 bytes   508 919 bytes   01:17:07.789
29              1:23:25.500     0:02:18.905     26 070 kbps     39 851 kbps     01:25:23.218    37 675 kbps     01:25:26.921    34 328 kbps     01:25:20.748    108 734 bytes   425 089 bytes   01:23:56.865
30              1:25:44.405     0:02:08.895     23 532 kbps     36 017 kbps     01:26:03.424    31 154 kbps     01:27:06.087    29 974 kbps     01:26:00.021    98 150 bytes    355 817 bytes   01:25:58.820
31              1:27:53.301     0:06:25.785     28 857 kbps     56 130 kbps     01:30:39.467    43 661 kbps     01:33:38.746    40 838 kbps     01:31:42.029    120 367 bytes   682 269 bytes   01:32:00.915
STREAM DIAGNOSTICS:
File            PID             Type            Codec           Language                Seconds                 Bitrate                 Bytes           Packets
----            ---             ----            -----           --------                --------------          --------------          -------------   -----
00301.M2TS      4113 (0x1011)   0x1B            AVC                                     0,901                   145                     16 308          112
00301.M2TS      4352 (0x1100)   0x80            LPCM            ita (Italian)           0,901                   2 565                   288 800         1 600
00301.M2TS      4353 (0x1101)   0x86            DTS-HD MA       ita (Italian)           0,901                   1 736                   195 520         1 222
00000.M2TS      4113 (0x1011)   0x1B            AVC                                     3585,449                26 000                  11 652 723 649  63 392 821
00000.M2TS      4352 (0x1100)   0x80            LPCM            ita (Italian)           3585,449                2 309                   1 034 803 612   5 732 984
00000.M2TS      4353 (0x1101)   0x86            DTS-HD MA       ita (Italian)           3585,449                4 147                   1 858 433 752   10 658 511
00001.M2TS      4113 (0x1011)   0x1B            AVC                                     2072,470                26 001                  6 735 727 705   36 643 454
00001.M2TS      4352 (0x1100)   0x80            LPCM            ita (Italian)           2072,470                2 309                   598 269 416     3 314 512
00001.M2TS      4353 (0x1101)   0x86            DTS-HD MA       ita (Italian)           2072,470                4 012                   1 039 438 756   5 972 572
********************PLAYLIST: 00002.MPLS********************
Total   Video
Title                                                           Codec   Length  Movie Size      Disc Size       Bitrate Bitrate Main Audio Track                          Secondary Audio Track
-----                                                           ------  ------- --------------  --------------  ------- ------- ------------------                        ---------------------
00002.MPLS                                                      AVC     0:14:50 3 307 456 512   28 178 791 013  29,71   26,00   LPCM 2.0 2304Kbps (48kHz/24-bit)
DISC INFO:
Disc Title:     Roland Petit's Notre-Dame de Paris
Disc Size:      28 178 791 013 bytes
Protection:     AACS
BD-Java:        No
BDInfo:         0.5.8
PLAYLIST REPORT:
Name:                   00002.MPLS
Length:                 0:14:50.723 (h:m:s.ms)
Size:                   3 307 456 512 bytes
Total Bitrate:          29,71 Mbps
VIDEO:
Codec                   Bitrate             Description
-----                   -------             -----------
MPEG-4 AVC Video        25998 kbps          1080i / 29,970 fps / 16:9 / High Profile 4.1
AUDIO:
Codec                           Language        Bitrate         Description
-----                           --------        -------         -----------
LPCM Audio                      Italian         2304 kbps       2.0 / 48 kHz / 2304 kbps / 24-bit
SUBTITLES:
Codec                           Language        Bitrate         Description
-----                           --------        -------         -----------
Presentation Graphics           English         38,552 kbps
FILES:
Name            Time In         Length          Size            Total Bitrate
----            -------         ------          ----            -------------
00003.M2TS      0:00:00.000     0:14:50.723     3 307 456 512   29 706
CHAPTERS:
Number          Time In         Length          Avg Video Rate  Max 1-Sec Rate  Max 1-Sec Time  Max 5-Sec Rate  Max 5-Sec Time  Max 10Sec Rate  Max 10Sec Time  Avg Frame Size  Max Frame Size  Max Frame Time
------          -------         ------          --------------  --------------  --------------  --------------  --------------  --------------  --------------  --------------  --------------  --------------
1               0:00:00.000     0:02:49.269     25 574 kbps     58 584 kbps     00:01:01.294    43 200 kbps     00:01:54.280    37 158 kbps     00:01:54.080    106 642 bytes   519 219 bytes   00:01:59.018
2               0:02:49.269     0:02:26.112     30 042 kbps     49 907 kbps     00:04:46.986    43 664 kbps     00:04:46.185    40 853 kbps     00:04:45.985    125 302 bytes   628 888 bytes   00:04:48.788
3               0:05:15.381     0:02:17.103     28 180 kbps     50 202 kbps     00:07:20.706    43 640 kbps     00:07:19.705    39 969 kbps     00:07:18.604    117 535 bytes   560 014 bytes   00:05:18.685
4               0:07:32.485     0:05:16.349     23 788 kbps     55 319 kbps     00:12:04.924    43 626 kbps     00:12:04.824    40 672 kbps     00:11:58.050    99 217 bytes    615 267 bytes   00:12:00.486
5               0:12:48.834     0:02:01.888     25 021 kbps     50 483 kbps     00:14:26.932    41 863 kbps     00:14:25.030    40 683 kbps     00:13:29.074    104 386 bytes   653 934 bytes   00:14:30.002
STREAM DIAGNOSTICS:
File            PID             Type            Codec           Language                Seconds                 Bitrate                 Bytes           Packets
----            ---             ----            -----           --------                --------------          --------------          -------------   -----
00003.M2TS      4113 (0x1011)   0x1B            AVC                                     890,590                 26 002                  2 894 650 796   15 747 324
00003.M2TS      4352 (0x1100)   0x80            LPCM            ita (Italian)           890,590                 2 311                   257 241 380     1 425 160
00003.M2TS      4608 (0x1200)   0x90            PGS             eng (English)           890,590                 39                      4 292 384       23 986
QUICK SUMMARY:
Disc Title: Maurice Jarre - Roland Petit's Notre-Dame de ParisDisc Size: 28 178 791 013 bytesProtection: AACSBD-Java: NoPlaylist: 00002.MPLSSize: 3 307 456 512 bytesLength: 0:14:50.723Total Bitrate: 29,71 MbpsVideo: MPEG-4 AVC Video / 25998 kbps / 1080i / 29,970 fps / 16:9 / High Profile 4.1Audio: Italian / LPCM Audio / 2.0 / 48 kHz / 2304 kbps / 24-bitSubtitle: English / 38,552 kbps
********************PLAYLIST: 00001.MPLS********************
Total   Video
Title                                                           Codec   Length  Movie Size      Disc Size       Bitrate Bitrate Main Audio Track                          Secondary Audio Track
-----                                                           ------  ------- --------------  --------------  ------- ------- ------------------                        ---------------------
00001.MPLS                                                      AVC     0:00:32 50 933 760      28 178 791 013  12,72   12,11
DISC INFO:
Disc Title:     Maurice Jarre - Roland Petit's Notre-Dame de Paris
Disc Size:      28 178 791 013 bytes
Protection:     AACS
BD-Java:        No
BDInfo:         0.5.8
PLAYLIST REPORT:
Name:                   00001.MPLS
Length:                 0:00:32.032 (h:m:s.ms)
Size:                   50 933 760 bytes
Total Bitrate:          12,72 Mbps
VIDEO:
Codec                   Bitrate             Description
-----                   -------             -----------
MPEG-4 AVC Video        12114 kbps          1080i / 29,970 fps / 16:9 / High Profile 4.1
FILES:
Name            Time In         Length          Size            Total Bitrate
----            -------         ------          ----            -------------
00002.M2TS      0:00:00.000     0:00:32.032     50 933 760      12 721
CHAPTERS:
Number          Time In         Length          Avg Video Rate  Max 1-Sec Rate  Max 1-Sec Time  Max 5-Sec Rate  Max 5-Sec Time  Max 10Sec Rate  Max 10Sec Time  Avg Frame Size  Max Frame Size  Max Frame Time
------          -------         ------          --------------  --------------  --------------  --------------  --------------  --------------  --------------  --------------  --------------  --------------
1               0:00:00.000     0:00:08.508     20 081 kbps     55 820 kbps     00:00:07.507    18 845 kbps     00:00:03.503    0 kbps          00:00:00.000    83 427 bytes    784 266 bytes   00:00:08.008
2               0:00:08.508     0:00:08.008     9 976 kbps      35 892 kbps     00:00:15.515    11 236 kbps     00:00:11.511    0 kbps          00:00:00.000    41 610 bytes    751 941 bytes   00:00:09.609
3               0:00:16.516     0:00:08.007     9 937 kbps      32 108 kbps     00:00:23.523    11 296 kbps     00:00:19.519    0 kbps          00:00:00.000    41 447 bytes    776 334 bytes   00:00:16.816
4               0:00:24.524     0:00:07.507     7 686 kbps      17 664 kbps     00:00:30.997    8 190 kbps      00:00:26.993    0 kbps          00:00:00.000    32 200 bytes    679 922 bytes   00:00:24.824
STREAM DIAGNOSTICS:
File            PID             Type            Codec           Language                Seconds                 Bitrate                 Bytes           Packets
----            ---             ----            -----           --------                --------------          --------------          -------------   -----
00002.M2TS      4113 (0x1011)   0x1B            AVC                                     31,932                  12 152                  48 503 705      264 181
QUICK SUMMARY:
Disc Title: Maurice Jarre - Roland Petit's Notre-Dame de ParisDisc Size: 28 178 791 013 bytesProtection: AACSBD-Java: NoPlaylist: 00001.MPLSSize: 50 933 760 bytesLength: 0:00:32.032Total Bitrate: 12,72 MbpsVideo: MPEG-4 AVC Video / 12114 kbps / 1080i / 29,970 fps / 16:9 / High Profile 4.1



Показать сообщения:    

Текущее время: 10-Дек 00:19

Часовой пояс: UTC + 3


Вы не можете начинать темы
Вы не можете отвечать на сообщения
Вы не можете редактировать свои сообщения
Вы не можете удалять свои сообщения
Вы не можете голосовать в опросах
Вы не можете прикреплять файлы к сообщениям
Вы не можете скачивать файлы