А. Хачатурян - Гаянэ | A. Khachaturian - Gayane (балет Армянского театра им. А. Спендиаряна; Мариинский театр, дирижер К. Дургарян) (2014, ballet, WEBRip)


 

[Цитировать]

А. Хачатурян
Гаянэ
-- Год выпуска: 2014
Лейбл: mariinsky.tv
Страна-производитель: Россия
Жанр: ballet
Продолжительность: 01:39:23 (спектакль) + 00:30:03 (интервью)
Язык: русский
Перевод: не требуется
Субтитры: нет
Режиссер/Хореограф: В. Галстян
Исполнители:
Гаянэ – Сюзанна Пирумян
Армен – Севак Аветисян
Гико – Армен Геворгян
Нунэ – Жаклин Сархошян
Карен – Гарик Бабелян
Балетная труппа Армянского академического театра оперы и балеты им. А. Спендиаряна
Симфонический оркестр Мариинского театра, дирижер Карен Дургарян
Описание: Представленная в 2014 г. на сцене Мариинского театра версия балета А. Хачатуряна "Гаянэ" была создана в 1973-74 годах хореографом Виленом Галстяном по просьбе самого композитора. Целью данной редакции было максимально освободить произведение от идеологических сюжетных нагромождений первой версии, созданной Хачатуряном в военные годы. В результате получилась постановка, предельно простая с точки зрения сюжета ("скромная", по выражению хореографа), построенная на виртуозных танцах различных жанров и составов.
Доп. информация: Запись с прямой трансляции спектакля из Мариинского театра 23 июля 2014 г. К раздаче приложены интервью директора Армянского театра оперы и балета им. А. Спендиаряна Андраника Арзуманяна и хореографа Вилена Галстяна
Качество видео: WEBRip
Формат/Контейнер: MPEG-PS
Видео кодек: MPEG2
Аудио кодек: MPEG
Видео поток: 1280х720, VBR ~10,4 mbps, 25fps
Аудио поток: Mpeg Audio layer 1/2/3 (mpga) 48000 Hz, 128 kbps, 2 ch

Media info

Общее
Полное имя : H:\Gayane_cut.mpg
Формат : MPEG-PS
Размер файла : 7,20 Гбайт
Продолжительность : 1 ч. 39 м.
Режим общего битрейта : Переменный
Общий поток : 10,4 Мбит/сек
Видео
Идентификатор : 224 (0xE0)
Формат : MPEG Video
Коммерческое название : HDV 720p
Версия формата : Version 2
Профиль формата : Main@High 1440
Параметр BVOP формата : Нет
Параметр матрицы формата : По умолчанию
Параметр GOP формата : N=12
Продолжительность : 1 ч. 39 м.
Вид битрейта : Переменный
Битрейт : 10,0 Мбит/сек
Ширина : 1280 пикселей
Высота : 720 пикселей
Соотношение сторон : 16:9
Частота кадров : 25,000 кадров/сек
Цветовое пространство : YUV
Субдискретизация насыщенности : 4:2:0
Битовая глубина : 8 бит
Тип развёртки : Прогрессивная
Метод сжатия : С потерями
Бит/(Пиксели*Кадры) : 0.436
Временной код первого кадра : 00:00:00:00
Оригинал временного кода : Group of pictures header
Размер потока : 6,97 Гбайт (97%)
Аудио
Идентификатор : 192 (0xC0)
Формат : MPEG Audio
Версия формата : Version 1
Профиль формата : Layer 2
Продолжительность : 1 ч. 39 м.
Вид битрейта : Постоянный
Битрейт : 128 Кбит/сек
Каналы : 2 канала
Частота : 48,0 КГц
Метод сжатия : С потерями
Задержка видео : -10 мс.
Размер потока : 91,0 Мбайт (1%)

Скриншоты




Показать сообщения:    

Текущее время: 08-Дек 11:00

Часовой пояс: UTC + 3


Вы не можете начинать темы
Вы не можете отвечать на сообщения
Вы не можете редактировать свои сообщения
Вы не можете удалять свои сообщения
Вы не можете голосовать в опросах
Вы не можете прикреплять файлы к сообщениям
Вы не можете скачивать файлы