С.Прокофьев - Золушка (Постановка Владимира Васильева) / S.Prokofiev - Cinderella (Е.Максимова,В.Васильев) [1994 г., Ballet, DVDRip]


 

[Цитировать]

С.Прокофьев - Золушка (Постановка Владимира Васильева) / S.Prokofiev - Cinderella (Е.Максимова,В.Васильев)
Год выпуска: 1994 г.
Лейбл: Balletoman.com
Жанр: Балет
Продолжительность: 01:58:16
Режиссер/Хореограф: Владимир Васильев
Исполнители: Екатерина Максимова, Владимир Васильев, Валентина Павлова, Зинаида Волина, Константин Матвеев, Светлана Цой
Треклист: отсутствует
Описание:
Сергей Прокофьев
"Золушка"
Театр балета Государственного кремлевского дворца
Хореография: Владимир Васильев
В ролях:
Золушка - Е.Максимова
Мачеха - В.Васильев
Сестры золушки: Кривляка - В.Павлова, Злюка - З.Волина
Принц - К.Матвеев
Фея-нищенка - С.Цой
Феи времен года: Весна - Т.Гордеева, Лето - Е.Жаворонкова, Осень - С.Романова, Зима - Ж.Богородицкая
Стрекозы: И.Кременская, С.Тоньшева, Е.Шувалова
Танцмейстер - В.Кременский
Сверстники Принца: А.Гороховик, Д.Черкасов
Испанский танец: Ю.Сурменева, С.Асатрян, В.Мурзин, И.Осиновский, С.Штырков
Восточный танец: И.Кременская, Е.Рытова, Т.Гареев, В.Дерюгин, А.Изосенков, А.Сабуров
Артисты Театра балета Государственного кремлевского дворца
Российский Национальный симфонический оркестр
Дирижер: Михаил Плетнев
Доп. информация:
Телерадиокомпания "Останкино". Запись 1994 года
Материал взят с сайта Balletoman.com
Качество видео: DVDRip
Формат/Контейнер: AVI
Видео кодек: H.264
Аудио кодек: MP3
Видео поток: AVC 4:3 (640x480) 4640 Кбит/сек 29,970 кадров/сек
Аудио поток: MP3 256 Кбит/сек 44,1 КГц 2 канала

Mediainfo

Общее
Формат : AVI
Формат/Информация : Audio Video Interleave
Профиль формата : OpenDML
Размер файла : 1,70 Гбайт
Продолжительность : 1 ч. 58 м.
Общий поток : 2063 Кбит/сек
Программа кодирования : Lavf54.63.104
Видео
Идентификатор : 0
Формат : AVC
Формат/Информация : Advanced Video Codec
Профиль формата : Main@L3.0
Параметр CABAC формата : Да
Параметр ReFrames формата : 1 кадр
Идентификатор кодека : H264
Продолжительность : 1 ч. 58 м.
Битрейт : 1787 Кбит/сек
Ширина : 640 пикселей
Высота : 480 пикселей
Соотношение сторон : 4:3
Режим частоты кадров : Переменный
Частота кадров : 29,970 кадров/сек
Цветовое пространство : YUV
Субдискретизация насыщенности : 4:2:0
Битовая глубина : 8 бит
Тип развёртки : Прогрессивная
Бит/(Пиксели*Кадры) : 0.194
Размер потока : 1,48 Гбайт (87%)
Библиотека кодирования : x264 core 129
Настройки программы : cabac=1 / ref=1 / deblock=1:0:0 / analyse=0x1:0x131 / me=dia / subme=2 / psy=1 / psy_rd=1.00:0.00 / mixed_ref=0 / me_range=16 / chroma_me=1 / trellis=0 / 8x8dct=0 / cqm=0 / deadzone=21,11 / fast_pskip=1 / chroma_qp_offset=0 / threads=2 / lookahead_threads=1 / sliced_threads=0 / nr=0 / decimate=1 / interlaced=0 / bluray_compat=0 / constrained_intra=0 / bframes=0 / weightp=2 / keyint=250 / keyint_min=25 / scenecut=40 / intra_refresh=0 / rc_lookahead=40 / rc=abr / mbtree=1 / bitrate=1787 / ratetol=1.0 / qcomp=0.60 / qpmin=10 / qpmax=51 / qpstep=4 / ip_ratio=1.41 / aq=1:1.00
Аудио
Идентификатор : 1
Формат : MPEG Audio
Версия формата : Version 1
Профиль формата : Layer 3
Режим : Joint stereo
Расширение режима : MS Stereo
Идентификатор кодека : 55
Идентификатор кодека/Подсказка : MP3
Продолжительность : 1 ч. 58 м.
Вид битрейта : Постоянный
Битрейт : 256 Кбит/сек
Каналы : 2 канала
Частота : 44,1 КГц
Метод сжатия : С потерями
Размер потока : 217 Мбайт (12%)
Выравнивание : Соединение по промежуткам
Продолжительность промежутка : 26 мс. (0,78 видеокадр)
Библиотека кодирования : LAME3.99.5



Показать сообщения:    

Текущее время: 09-Дек 18:30

Часовой пояс: UTC + 3


Вы не можете начинать темы
Вы не можете отвечать на сообщения
Вы не можете редактировать свои сообщения
Вы не можете удалять свои сообщения
Вы не можете голосовать в опросах
Вы не можете прикреплять файлы к сообщениям
Вы не можете скачивать файлы