Звезды Аргентинского Танго [2010 г., Танго, концертная программа, TVRip] Концертный Зал "У Финляндского"


 

[Цитировать]

Звезды Аргентинского ТангоГод выпуска: 2010.
Жанр: Танго, концертная программа.
Продолжительность: 01:23:58.
Танго:
знаменитые российские танцоры танго - Алексей Барболин и Юлия Зуева, Артем Майоров и Юлия Осина.
Музыка:
Московский танго-оркестр "Soledad" - Дмитрий Коваленко (бандонеон, аккордеон), Александр Рязанов (скрипка), Артем Тимин (рояль, клавишные), Роман Зорькин (гитара), Евгений Козлов (контрабас).
Описание:
Концертная программа "Звезды Аргентинского Танго".
"SOLEDAD ORQUESTA" (Москва) - один из самых известных танго-оркестров в Европе, первый профессиональный российский оркестр танго мирового уровня. Обладает большим опытом выступлений на лучших концертных площадках России и Европы, является официальным оркестром крупнейших международных фестивалей танго, работающим на одной сцене с мировыми звездами аргентинского танго. Танго-оркестр "Soledad Orquesta" известен виртуозностью талантливых музыкантов и богатым репертуаром, включающим в себя музыку как традиционного, так и современного аргентинского танго. Коллектив отличается безупречным исполнением, мощной энергетикой и ярким, богатым звучанием, что делает его близким лучшим аргентинским оркестрам эпохи "Золотого века танго".
Алексей Барболин и Юлия Зуева (Санкт-Петербург).
Одна из самых известных российских пар. Танцоры международного уровня, участники европейских танго-шоу, финалисты чемпионатов Мира по аргентинскому танго в Буэнос-Айресе, Японии, Корее. Организаторы крупнейшего российского ежегодного Международного Фестиваля Аргентинского танго "Танго Белых Ночей" в Санкт-Петербурге.
Артем Майоров и Юлия Осина (Санкт-Петербург).
Танцоры международного уровня, участники многочисленных концертов и фестивалей танго, солисты Театра Музыкальной Комедии в Российско-Аргентинском спектакле "Мечты о танго", организаторы фестиваля "Аргентинские Каникулы в Петербурге", финалисты чемпионата Мира по аргентинскому танго в Буэнос-Айресе.

Дополнительная информация:
Страна: Россия .
Организатор концерта: © Центр Танца "Тангомания".

Релиз
Качество видео:...TVRip
Формат:.................AVI
Видео:..640x352 (1.82:1), 25 fps, XviD MPEG-4 ~1102 kbps avg, 0.20 bit/pixel
Аудио:..44.100 kHz, MPEG Layer 3, 2 ch, ~128.00 kbps avg

Отчет MI

Общее
Полное имя : Zvezdy.Argentinskogo.tango.2010.XviD.TVRip.fenixclub.avi
Формат : AVI
Формат/Информация : Audio Video Interleave
Размер файла : 745 Мбайт
Продолжительность : 1 ч. 23 м.
Общий поток : 1241 Кбит/сек
Библиотека кодирования : VirtualDub build 34753/release
Видео
Идентификатор : 0
Формат : MPEG-4 Visual
Профиль формата : Advanced Simple@L5
Параметр BVOP формата : 2
Параметр QPel формата : Нет
Параметр GMC формата : Без точки перехода
Параметр матрицы формата : Default (H.263)
Режим смешивания : Сжатый битовый поток
Идентификатор кодека : XVID
Идентификатор кодека/Подсказка : XviD
Продолжительность : 1 ч. 23 м.
Битрейт : 1103 Кбит/сек
Ширина : 640 пикселей
Высота : 352 пикселя
Соотношение сторон : 16:9
Частота кадров : 25,000 кадров/сек
Цветовое пространство : YUV
Субдискретизация насыщенности : 4:2:0
Битовая глубина : 8 бит
Тип развёртки : Прогрессивная
Метод сжатия : С потерями
Бит/(Пиксели*Кадры) : 0.196
Размер потока : 662 Мбайт (89%)
Библиотека кодирования : XviD 1.2.1 (UTC 2008-12-04)
Аудио
Идентификатор : 1
Формат : MPEG Audio
Версия формата : Version 1
Профиль формата : Layer 3
Режим : Joint stereo
Расширение режима : MS Stereo
Идентификатор кодека : 55
Идентификатор кодека/Подсказка : MP3
Продолжительность : 1 ч. 23 м.
Вид битрейта : Постоянный
Битрейт : 128 Кбит/сек
Каналы : 2 канала
Частота : 44,1 КГц
Метод сжатия : С потерями
Размер потока : 76,9 Мбайт (10%)
Выравнивание : Разделение по промежуткам
Продолжительность промежутка : 40 мс. (1,00 видеокадр)
Время предзагрузки промежутка : 500 мс.

Скриншоты

Альтернативный хост




Показать сообщения:    

Текущее время: 05-Дек 05:32

Часовой пояс: UTC + 3


Вы не можете начинать темы
Вы не можете отвечать на сообщения
Вы не можете редактировать свои сообщения
Вы не можете удалять свои сообщения
Вы не можете голосовать в опросах
Вы не можете прикреплять файлы к сообщениям
Вы не можете скачивать файлы