Minkus - La Bayadere / Баядерка (Мариинский театр, Борис Грузин) [2014, Балет, HDRip]


 

[Цитировать]

Баядерка - Минкус / La Bayadere - Minkus
Год выпуска: 2014
Лейбл: MARIINSKY THEATRE - TELMONDIS - MEZZO / 2014
Страна-производитель: Россия
Жанр: Балет
Продолжительность: 02:37:52
Исполнители:
Никия – Виктория Терёшкина
Гамзатти – Анастасия Матвиенко
Солор – Владимир Шкляров
Дирижер – Борис Грузин
Описание: http://www.mariinsky.ru/playbill/playbill/2014/7/14/1_1900/
http://www.mariinskyonscreen.com/about-the-event/la-bayadere/
Доп. информация: Запись прямой трансляции балета Мариинского театра, 14 июля 2014г.
В видео контейнер 'зашита' навигация начала 3х частей балета.
Качество видео: HDRip
Формат/Контейнер: MKV
Видео кодек: MPEG2
Аудио кодек: AC3
Видео поток: MPEG2 Video 1920x1080 25fps, 17.5 Мбит/сек, 4:2:0
Аудио поток: Dolby AC3 48000Hz 6ch 448kbps

MediaInfo

Общее
Уникальный идентификатор : 202153334213017637950575224842194550251 (0x981550E38818DB4481B6A1AA9B347DEB)
Полное имя : LaBayadere.mkv
Формат : Matroska
Версия формата : Version 4 / Version 2
Размер файла : 20,2 Гбайт
Продолжительность : 2 ч. 37 м.
Общий поток : 18,3 Мбит/сек
Дата кодирования : UTC 2014-07-14 21:12:52
Программа кодирования : mkvmerge v7.0.0 ('Where We Going') 32bit built on Jun 9 2014 15:08:34
Библиотека кодирования : libebml v1.3.0 + libmatroska v1.4.1
Видео
Идентификатор : 1
Формат : MPEG Video
Версия формата : Version 2
Профиль формата : Main@High
Параметр BVOP формата : Нет
Параметр матрицы формата : Выборочная
Идентификатор кодека : V_MPEG2
Идентификатор кодека/Информация : MPEG 1 or 2 Video
Продолжительность : 2 ч. 37 м.
Битрейт : 17,5 Мбит/сек
Максимальный битрейт : 18,1 Мбит/сек
Ширина : 1920 пикселей
Высота : 1080 пикселей
Соотношение сторон : 16:9
Режим частоты кадров : Постоянный
Частота кадров : 25,000 кадров/сек
Цветовое пространство : YUV
Субдискретизация насыщенности : 4:2:0
Битовая глубина : 8 бит
Тип развёртки : Чересстрочная
Порядок развёртки : Верхнее поле первое
Метод сжатия : С потерями
Бит/(Пиксели*Кадры) : 0.338
Временной код первого кадра : 09:47:35:04
Оригинал временного кода : Group of pictures header
Размер потока : 19,3 Гбайт (96%)
Default : Да
Forced : Нет
Аудио
Идентификатор : 2
Формат : AC-3
Формат/Информация : Audio Coding 3
Расширение режима : CM (complete main)
Параметр Endianness формата : Big
Идентификатор кодека : A_AC3
Продолжительность : 2 ч. 37 м.
Вид битрейта : Постоянный
Битрейт : 448 Кбит/сек
Каналы : 6 каналов
Расположение каналов : Front: L C R, Side: L R, LFE
Частота : 48,0 КГц
Битовая глубина : 16 бит
Метод сжатия : С потерями
Задержка видео : 6 мс.
Размер потока : 506 Мбайт (2%)
Язык : English
Default : Да
Forced : Нет
Меню #1
00:07:22.000 : :Акт 1
Меню #2
01:12:00.000 : :Акт 2
Меню #3
01:55:40.000 : :Акт 3

Скриншоты




Показать сообщения:    

Текущее время: 09-Дек 22:26

Часовой пояс: UTC + 3


Вы не можете начинать темы
Вы не можете отвечать на сообщения
Вы не можете редактировать свои сообщения
Вы не можете удалять свои сообщения
Вы не можете голосовать в опросах
Вы не можете прикреплять файлы к сообщениям
Вы не можете скачивать файлы