Пыль (Акрам Хан) / Jocelyn Pook - Dust (Akram Khan, English National Ballet)[2014, Modern ballet, HDTVRip]


 

[Цитировать]

Пыль / Dust
Год выпуска: 2014
Лейбл: Glastonbury
Страна-производитель: Великобритания
Жанр: Modern ballet
Продолжительность: 00:27:07
Музыка: Jocelyn Pook
Режиссер/Хореограф: Акрам Хан / Akram Khan
Исполнители:
Erina Takahashi
James Streeter
English National Ballet
Описание:
Dancers of the English National Ballet perform 'Dust', choreographed by Akram Khan, from 'Lest We Forget' on the Pyramid Stage, on the last day of the Glastonbury Festival at Worthy Farm, Pilton on June 29, 2014 in Glastonbury.
Доп. информация:
В начале файла короткий рассказ участников о данной постановке на английском языке.
Качество видео: HDTVRip
Формат/Контейнер: MKV
Видео кодек: H.264
Аудио кодек: AC3
Видео поток: MPEG4 Video (H264) 1920x1080 25.00fps 4 979 Kbps
Аудио поток: Dolby AC3 48000Hz stereo 192 Kbps

Mediainfo

Format : Matroska
File size : 1 023 MiB
Duration : 27mn 7s
Overall bit rate : 5 276 Kbps
Encoded date : UTC 2014-07-13 18:15:13
Writing application : mkvmerge v2.4.2 ('Oh My God') built on Jan 18 2009 17:30:28
Writing library : libebml v0.7.7 + libmatroska v0.8.1
Video
ID : 1
Format : AVC
Format/Info : Advanced Video Codec
Format profile : High@L4.0
Format settings, CABAC : No
Format settings, ReFrames : 1 frame
Muxing mode : Container profile=Unknown@4.0
Codec ID : V_MPEG4/ISO/AVC
Duration : 27mn 7s
Bit rate : 4 979 Kbps
Width : 1 920 pixels
Height : 1 080 pixels
Display aspect ratio : 16:9
Frame rate : 25.000 fps
Original frame rate : 29.970 fps
Color space : YUV
Chroma subsampling : 4:2:0
Bit depth : 8 bits
Scan type : Progressive
Bits/(Pixel*Frame) : 0.096
Stream size : 966 MiB (94%)
Audio
ID : 2
Format : AC-3
Format/Info : Audio Coding 3
Mode extension : CM (complete main)
Codec ID : A_AC3
Duration : 27mn 7s
Bit rate mode : Constant
Bit rate : 192 Kbps
Channel(s) : 2 channels
Channel positions : Front: L R
Sampling rate : 48.0 KHz
Bit depth : 16 bits
Video delay : 24ms
Stream size : 37.2 MiB (4%)

Скриншоты




Показать сообщения:    

Текущее время: 03-Дек 07:40

Часовой пояс: UTC + 3


Вы не можете начинать темы
Вы не можете отвечать на сообщения
Вы не можете редактировать свои сообщения
Вы не можете удалять свои сообщения
Вы не можете голосовать в опросах
Вы не можете прикреплять файлы к сообщениям
Вы не можете скачивать файлы