Морис Равель - Болеро (Морис Бежар) / Maurice Ravel - Bolero (Maurice Bejart, Charles Dutoit, [2014, Ballet, WEBRip]


 

[Цитировать]

Болеро / Bolero
Год выпуска: 2014
Лейбл: Bejart Ballet Lausanne
Страна-производитель: Франция
Жанр: Ballet
Продолжительность: 00:17:50
Музыка: Maurice Ravel / Морис Равель
Исполнители музыки: Orchestre symphonique de Montreal
Дирижер: Charles Dutoit
Режиссер/Хореограф: Морис Бежар / Maurice Bejart
Художественный руководитель: Жиль Роман / Gil Roman
Режиссер ТВ: Stephane Lebard
Исполнители:
Julien Favreau, Bejart Ballet Lausanne
Описание:
Балет Бежара Лозанны представляет в Версале на фестивале Les Nuits de l’Orangerie лучшее создание Мориса Бежара - «Болеро».
Качество видео: WEBRip
Формат/Контейнер: MKV
Видео кодек: H.264
Аудио кодек: AC3
Видео поток: MPEG4 Video (H264) 1280x720 25.00fps 7357 Kbps
Аудио поток: Dolby AC3 48000Hz stereo 256 Kbps

Mediainfo

Format : Matroska
File size : 991 MiB
Duration : 17mn 50s
Overall bit rate : 7 768 Kbps
Encoded date : UTC 2014-07-02 15:34:32
Writing application : mkvmerge v2.4.2 ('Oh My God') built on Jan 18 2009 17:30:28
Writing library : libebml v0.7.7 + libmatroska v0.8.1
Video
ID : 1
Format : AVC
Format/Info : Advanced Video Codec
Format profile : High@L4.1
Format settings, CABAC : Yes
Format settings, ReFrames : 3 frames
Format settings, GOP : M=3, N=5
Muxing mode : Container profile=Unknown@4.1
Codec ID : V_MPEG4/ISO/AVC
Duration : 17mn 50s
Bit rate : 7 357 Kbps
Width : 1 280 pixels
Height : 720 pixels
Display aspect ratio : 16:9
Frame rate mode : Variable
Frame rate : 25.000 fps
Color space : YUV
Chroma subsampling : 4:2:0
Bit depth : 8 bits
Scan type : Progressive
Bits/(Pixel*Frame) : 0.319
Stream size : 939 MiB (95%)
Language : English
Audio
ID : 2
Format : AC-3
Format/Info : Audio Coding 3
Mode extension : CM (complete main)
Codec ID : A_AC3
Duration : 17mn 50s
Bit rate mode : Constant
Bit rate : 256 Kbps
Channel(s) : 2 channels
Channel positions : Front: L R
Sampling rate : 48.0 KHz
Bit depth : 16 bits
Video delay : 16ms
Stream size : 32.7 MiB (3%)
Language : English

Скриншоты




Показать сообщения:    

Текущее время: 06-Дек 13:15

Часовой пояс: UTC + 3


Вы не можете начинать темы
Вы не можете отвечать на сообщения
Вы не можете редактировать свои сообщения
Вы не можете удалять свои сообщения
Вы не можете голосовать в опросах
Вы не можете прикреплять файлы к сообщениям
Вы не можете скачивать файлы