Резеда Ахиярова - Золотая Орда (Георгий Ковтун, Рустем Абязов) / Rezeda Akhiyarora - The Golden Hord / La Horde d Or (Georgy Kovtun, Rustem Abyazov) [2014, Ballet, HDTVRip]


 

[Цитировать]

Золотая Орда / The Golden Hord / La Horde d Or
Год выпуска: 2014 (прямая трансляция 26 июня)
Лейбл: Tatar State Academic Opera
Страна-производитель: Россия
Жанр: Ballet
Продолжительность: 01:05:50
Музыка: Резеда Ахиярова / Rezeda Akhiyarora
Либретто: Ренат Харис / Rhenat Kharis
Музыкальный руководитель постановки: Рустем Абязов / Rustem Abyazov
Исполнители музыки: Оркестр Татарского академического государственного театра оперы и балета
Хормейстер: Нурия Джураева
Режиссер/Хореограф: Георгий Ковтун / Georgy Kovtun
Исполнители:
Maxim Potseluiko - Tokhtamych
Anton Polodyuk - Murza
Kristina Andreeva - Djanike
Nurlan Kanetov - Vizir
Gleb Korablev - Timur
Mikhail Timaev - L'esprit de Batu Khan
Описание:
Балет «Золотая Орда» был написан по заказу Татарского театра оперы и балета. Работа над спектаклем велась 3 года – либретто сочинил народный поэт Татарстана Ренат Харис, музыка была написана известным композитором Резедой Ахияровой. Балетмейстером масштабной постановки выступил российский хореограф Георгий Ковтун. Хореография спектакля отличается большой сложностью, характерным сочетанием классических и современных элементов, изобретательностью сцен, выразительностью дуэтов и ансамблей. Сценография и костюмы выполнены украинскими художниками Андреем Злобиным и Анной Ипатьевой.
Доп. информация: Рип и описание alex7, за что ему огромное спасибо.
Качество видео: HDTVRip
Формат/Контейнер: MKV
Видео кодек: H.264
Аудио кодек: AC3
Видео поток: MPEG4 Video (H264) 1920x1080 25.00fps 10 000 Kbps
Аудио поток: MPEG Audio Layer 3 48000Hz stereo 256 Kbps

Mediainfo

Format : Matroska
File size : 4.71 GiB
Duration : 1h 5mn
Overall bit rate : 10.3 Mbps
Encoded date : UTC 2014-06-30 15:21:01
Writing application : mkvmerge v2.4.2 ('Oh My God') built on Jan 18 2009 17:30:28
Writing library : libebml v0.7.7 + libmatroska v0.8.1
Video
ID : 1
Format : AVC
Format/Info : Advanced Video Codec
Format profile : High@L4.0
Format settings, CABAC : Yes
Format settings, ReFrames : 4 frames
Muxing mode : Container profile=Unknown@4.0
Codec ID : V_MPEG4/ISO/AVC
Duration : 1h 5mn
Bit rate : 10 000 Kbps
Width : 1 920 pixels
Height : 1 080 pixels
Display aspect ratio : 16:9
Frame rate mode : Variable
Frame rate : 25.000 fps
Color space : YUV
Chroma subsampling : 4:2:0
Bit depth : 8 bits
Scan type : Progressive
Bits/(Pixel*Frame) : 0.193
Stream size : 4.50 GiB (96%)
Writing library : x264 core 129
Encoding settings : cabac=1 / ref=3 / deblock=1:0:0 / analyse=0x3:0x113 / me=hex / subme=7 / psy=1 / psy_rd=1.00:0.00 / mixed_ref=1 / me_range=16 / chroma_me=1 / trellis=1 / 8x8dct=1 / cqm=0 / deadzone=21,11 / fast_pskip=1 / chroma_qp_offset=-2 / threads=4 / lookahead_threads=1 / sliced_threads=0 / nr=0 / decimate=1 / interlaced=0 / bluray_compat=0 / constrained_intra=0 / bframes=3 / b_pyramid=2 / b_adapt=1 / b_bias=0 / direct=1 / weightb=1 / open_gop=0 / weightp=2 / keyint=250 / keyint_min=25 / scenecut=40 / intra_refresh=0 / rc_lookahead=40 / rc=abr / mbtree=1 / bitrate=10000 / ratetol=1.0 / qcomp=0.60 / qpmin=0 / qpmax=69 / qpstep=4 / ip_ratio=1.40 / aq=1:1.00
Audio
ID : 2
Format : MPEG Audio
Format version : Version 1
Format profile : Layer 3
Mode : Joint stereo
Codec ID : A_MPEG/L3
Codec ID/Hint : MP3
Duration : 1h 5mn
Bit rate mode : Constant
Bit rate : 256 Kbps
Channel(s) : 2 channels
Sampling rate : 48.0 KHz
Video delay : 1ms
Stream size : 121 MiB (2%)
Writing library : LAME ©
Language : English

Скриншоты




Показать сообщения:    

Текущее время: 05-Дек 17:35

Часовой пояс: UTC + 3


Вы не можете начинать темы
Вы не можете отвечать на сообщения
Вы не можете редактировать свои сообщения
Вы не можете удалять свои сообщения
Вы не можете голосовать в опросах
Вы не можете прикреплять файлы к сообщениям
Вы не можете скачивать файлы