Frank Moon - The Metamorphosis (Marc Albrecht, Arthur Pita) / Фрэнк Мун - Метаморфозы (Артур Пита) [2013, Dramballet, BDRip]


 

[Цитировать]

The Metamorphosis / Метаморфозы
Год выпуска: 2013
Лейбл: Opus Arte
Страна-производитель: Великобритания
Жанр: Dramballet
Продолжительность: 01:32:55
Музыка: Фрэнк Мун / Frank Moon
Дирижер: Марк Альбрехт / Marc Albrecht
Исполнители музыки: The Orchestra of the Royal Opera House
Режиссер/Хореограф: Артур Пита / Arthur Pita
Исполнители:
Gregor Samsa - Edward Watson
Greter Samsa - Laura Day
Mrs Samsa - Nina Goldman
Mr Samsa - Neil Reynolds
Bettina Carpi, Greig Cooke, Amir Giles, The Royal Ballet
Описание:
Человек просыпается однажды утром, чтобы обнаружить свое превращение в гигантское насекомое, вызывающее отвращение и ужас окружающих.
Arthur Pita’s dance-theatre adaptation of Franz Kafka’s 1915 novella had its premiere at the Royal Opera House’s Linbury Studio Theatre in 2011. The role of Gregor Samsa was created for Royal Ballet Principal Edward Watson, and draws on his extraordinary technical abilities. The unusual and absurd story is conveyed through startling choreography – an intelligent presentation of the pressures and yearnings of the young Kafka.
Frank Moon’s score and Simon Daw’s stark, white designs in traverse create a claustrophobic atmosphere, while the horror of Gregor’s physical alteration is evoked by black fluid that smears the stage. Although Gregor’s mother and father struggle to come to terms with his transformation, his younger sister, Grete, is more sympathetic. However, her feelings change and she undergoes her own metamorphosis as she moves from childhood to adulthood. The Metamorphosis won a South Bank Sky Arts Award and Edward Watson won the Olivier Award for Outstanding Achievement in Dance for his role.
Доп. информация:
Перед просмотром желательно ознакомиться с новеллой Франца Кафки "Превращение".
Рип с раздачи HDclub, огромное спасибо PeterGriffin
Предупреждение: ярым поклонникам классического балета не рекомендуется трата трафика
Качество видео: BDRip
Формат/Контейнер: MKV
Видео кодек: H.264
Аудио кодек: AC3
Видео поток: MPEG4 Video (H264) 1920x1080 29.97fps 11.0 Mbps
Аудио поток: Dolby AC3 48000Hz 6ch 448 Kbps

Mediainfo

Format : Matroska
File size : 7.43 GiB
Duration : 1h 32mn
Overall bit rate : 11.4 Mbps
Encoded date : UTC 2014-06-04 13:37:26
Writing application : mkvmerge v2.4.2 ('Oh My God') built on Jan 18 2009 17:30:28
Writing library : libebml v0.7.7 + libmatroska v0.8.1
Video
ID : 1
Format : AVC
Format/Info : Advanced Video Codec
Format profile : High@L4.1
Format settings, CABAC : Yes
Format settings, ReFrames : 3 frames
Format settings, GOP : M=1, N=16
Muxing mode : Container profile=Unknown@4.1
Codec ID : V_MPEG4/ISO/AVC
Duration : 1h 32mn
Bit rate : 11.0 Mbps
Width : 1 920 pixels
Height : 1 080 pixels
Display aspect ratio : 16:9
Frame rate mode : Variable
Frame rate : 29.970 fps
Color space : YUV
Chroma subsampling : 4:2:0
Bit depth : 8 bits
Scan type : MBAFF
Bits/(Pixel*Frame) : 0.177
Stream size : 6.99 GiB (94%)
Writing library : x264 core 116 r2019M 9cc407d
Encoding settings : cabac=1 / ref=3 / deblock=1:-1:-1 / analyse=0x3:0x133 / me=umh / subme=9 / psy=1 / psy_rd=1.00:0.15 / mixed_ref=1 / me_range=16 / chroma_me=1 / trellis=1 / 8x8dct=1 / cqm=0 / deadzone=21,11 / fast_pskip=1 / chroma_qp_offset=-3 / threads=12 / sliced_threads=0 / nr=0 / decimate=1 / interlaced=tff / bluray_compat=0 / constrained_intra=0 / bframes=3 / b_pyramid=1 / b_adapt=2 / b_bias=0 / direct=3 / weightb=1 / open_gop=0 / weightp=0 / keyint=290 / keyint_min=29 / scenecut=40 / intra_refresh=0 / rc_lookahead=40 / rc=2pass / mbtree=1 / bitrate=11000 / ratetol=1.0 / qcomp=0.60 / qpmin=10 / qpmax=51 / qpstep=4 / cplxblur=20.0 / qblur=0.5 / ip_ratio=1.40 / aq=1:1.00
Audio
ID : 2
Format : AC-3
Format/Info : Audio Coding 3
Mode extension : CM (complete main)
Codec ID : A_AC3
Duration : 1h 32mn
Bit rate mode : Constant
Bit rate : 448 Kbps
Channel(s) : 6 channels
Channel positions : Front: L C R, Side: L R, LFE
Sampling rate : 48.0 KHz
Bit depth : 16 bits
Stream size : 298 MiB (4%)

Скриншоты




Показать сообщения:    

Текущее время: 06-Дек 13:14

Часовой пояс: UTC + 3


Вы не можете начинать темы
Вы не можете отвечать на сообщения
Вы не можете редактировать свои сообщения
Вы не можете удалять свои сообщения
Вы не можете голосовать в опросах
Вы не можете прикреплять файлы к сообщениям
Вы не можете скачивать файлы