P.I.Tchaikovsky - Sleeping Beauty (Brett Morris, Matthew Bourne) / П.И.Чайковский - Спящая красавица (Мэтью Борн) [2013, Modern ballet, BDRip]


 

[Цитировать]

Matthew Bourne's Sleeping Beauty / Спящая красавица
Год выпуска: 2013
Лейбл: Decca Records
Страна-производитель: Великобритания
Жанр: Modern ballet
Продолжительность: 01:44:44
Композитор: П.И.Чайковский / P.I.Tchaikovsky
Дирижер: Brett Morris
Исполнители музыки: English National Opera Orchestra
Режиссер/Хореограф: Мэтью Борн / Matthew Bourne - все релизы хореографа
Исполнители:
Princess Aurora – Hannan Vassallo
Leo – Dominic North
Count Lilac – Christopher Marney
Carabosse / Caradoc – Adam Maskell
King Benedict - Edwin Ray
Queen Eleanor – Kerry Bigin
Miss Maddox – Daisy May Kemp
Описание:
В новой постановке "Спящая Красавица" от Борна чувствуются "вампирские мотивы". Действие разворачивается в 1890 году - именно тогда состоялась премьера "Спящей красавицы" в Санкт-Петербурге. По ходу постановки главная героиня Аврора окажется в "более строгой" эдвардианской эпохе, проснется же она в нынешнее время.
Matthew Bourne’s SLEEPING BEAUTY sees the choreographer return to the music of Tchaikovsky to complete the trio of the composer’s ballet masterworks that started in 1992 with Nutcracker! and, most famously, in 1995, with the international hit Swan Lake.
Perrault’s timeless fairy tale, about a young girl cursed to sleep for one hundred years, was turned into a legendary ballet by Tchaikovsky and choreographer, Marius Petipa, in 1890.
Bourne takes this date as his starting point, setting the Christening of Aurora, the story’s heroine, in the year of the ballets first performance; the height of the Fin-de-Siecle period when fairies, vampires and decadent opulence fed the gothic imagination. As Aurora grows into a young woman, we move forwards in time to the more rigid, uptight Edwardian era; a mythical golden age of long Summer afternoons, croquet on the lawn and new dance crazes. Years later, awakening from her century long slumber, Aurora finds herself in the modern day; a world more mysterious and wonderful than any Fairy story!
Matthew Bourne’s haunting new scenario is a gothic fairy tale for all ages; the traditional tale of good vs. evil and rebirth is turned upside-down, creating a supernatural love story, across the decades, that even the passage of time itself cannot hinder.
Доп. информация: Огромное спасибо -=Sn!pEr=-
Качество видео: BDRip
Формат/Контейнер: MKV
Видео кодек: H.264
Аудио кодек: AC3
Видео поток: MPEG4 Video (H264) 1920x1080 29.97fps 10000 Kbps
Аудио поток: Dolby AC3 48000Hz 6ch 448 Kbps

Mediainfo

Format : Matroska
File size : 7.65 GiB
Duration : 1h 44mn
Overall bit rate : 10.5 Mbps
Encoded date : UTC 2014-05-30 12:52:38
Writing application : mkvmerge v2.4.2 ('Oh My God') built on Jan 18 2009 17:30:28
Writing library : libebml v0.7.7 + libmatroska v0.8.1
Video
ID : 1
Format : AVC
Format/Info : Advanced Video Codec
Format profile : High@L4.1
Format settings, CABAC : Yes
Format settings, ReFrames : 3 frames
Muxing mode : Container profile=Unknown@4.1
Codec ID : V_MPEG4/ISO/AVC
Duration : 1h 44mn
Bit rate : 10 000 Kbps
Width : 1 920 pixels
Height : 1 080 pixels
Display aspect ratio : 16:9
Frame rate mode : Variable
Frame rate : 29.970 fps
Color space : YUV
Chroma subsampling : 4:2:0
Bit depth : 8 bits
Scan type : MBAFF
Bits/(Pixel*Frame) : 0.161
Stream size : 7.17 GiB (94%)
Writing library : x264 core 116 r2019M 9cc407d
Encoding settings : cabac=1 / ref=3 / deblock=1:-1:-1 / analyse=0x3:0x133 / me=umh / subme=9 / psy=1 / psy_rd=1.00:0.15 / mixed_ref=1 / me_range=16 / chroma_me=1 / trellis=1 / 8x8dct=1 / cqm=0 / deadzone=21,11 / fast_pskip=1 / chroma_qp_offset=-3 / threads=12 / sliced_threads=0 / nr=0 / decimate=1 / interlaced=tff / bluray_compat=0 / constrained_intra=0 / bframes=3 / b_pyramid=1 / b_adapt=2 / b_bias=0 / direct=3 / weightb=1 / open_gop=0 / weightp=0 / keyint=290 / keyint_min=29 / scenecut=40 / intra_refresh=0 / rc_lookahead=40 / rc=2pass / mbtree=1 / bitrate=10000 / ratetol=1.0 / qcomp=0.60 / qpmin=10 / qpmax=51 / qpstep=4 / cplxblur=20.0 / qblur=0.5 / ip_ratio=1.40 / aq=1:1.00
Audio
ID : 2
Format : AC-3
Format/Info : Audio Coding 3
Mode extension : CM (complete main)
Codec ID : A_AC3
Duration : 1h 44mn
Bit rate mode : Constant
Bit rate : 448 Kbps
Channel(s) : 6 channels
Channel positions : Front: L C R, Side: L R, LFE
Sampling rate : 48.0 KHz
Bit depth : 16 bits
Stream size : 336 MiB (4%)

Скриншоты




Показать сообщения:    

Текущее время: 08-Дек 14:50

Часовой пояс: UTC + 3


Вы не можете начинать темы
Вы не можете отвечать на сообщения
Вы не можете редактировать свои сообщения
Вы не можете удалять свои сообщения
Вы не можете голосовать в опросах
Вы не можете прикреплять файлы к сообщениям
Вы не можете скачивать файлы