Элвин Курран - Если вы их поймаете, они ваши (Триша Браун) / Alvin Curran - I m going to toss my arms — if you catch them they re yours (Trisha Brown) [2012, Modern ballet, HDTVRip]


 

[Цитировать]

Если вы их поймаете, они ваши /I'm going to toss my arms — if you catch them they're yours
Год выпуска: 2012
Лейбл: 24 IMAGES
Страна-производитель: Франция
Жанр: Modern ballet
Продолжительность: 00:44:30
Музыка: Элвин Курран / Alvin Curran
Режиссер/Хореограф: Триша Браун / Trisha Brown
Режиссер ТВ: Luc Riolon
Исполнители:
Neal Beasley, Elena Demyanenko, Dai Jian, Tara Lorenzen, Leah Morrison, Tamara Riewe, Nicholas Strafaccia, Laurel Jenkins Tentindo, Samuel Wentz
Описание:
Триша Браун представила спектакль "Я вскину мои руки. Если вы их поймаете, они ваши", где артисты движутся под мощным потоком воздуха огромных вентиляторов. Следы танцовщиков тут же стираются швабрами. Искусство танца - лишь миг между прошлым и будущим. Время безжалостно, а воспоминания о танце иллюзорны.
Доп. информация: Запись трансляции alex7, за что ему огромное спасибо.
Перед постановкой десятиминутное интервью с Тришей Браун на английском языке с французскими субтитрами.
Качество видео: HDTVRip
Формат/Контейнер: AVI
Видео кодек: DivX
Аудио кодек: MP3
Видео поток: DivX 5 1280x720 25.00fps 3321 Kbps
Аудио поток: MPEG Audio Layer 3 48000Hz stereo 256kbps

Mediainfo

Format : AVI
Format/Info : Audio Video Interleave
File size : 1.12 GiB
Duration : 44mn 30s
Overall bit rate : 3 587 Kbps
Writing application : VirtualDubModRus 1.5.10.2 (build 2542/release)
Writing library : VirtualDubMod build 2542/release
Video
ID : 0
Format : MPEG-4 Visual
Format profile : Simple@L1
Format settings, BVOP : No
Format settings, QPel : No
Format settings, GMC : No warppoints
Format settings, Matrix : Default (H.263)
Codec ID : DX50
Codec ID/Hint : DivX 5
Duration : 44mn 30s
Bit rate : 3 321 Kbps
Width : 1 280 pixels
Height : 720 pixels
Display aspect ratio : 16:9
Frame rate : 25.000 fps
Color space : YUV
Chroma subsampling : 4:2:0
Bit depth : 8 bits
Scan type : Progressive
Bits/(Pixel*Frame) : 0.144
Stream size : 1.03 GiB (93%)
Writing library : Lavc51.40.4
Audio
ID : 1
Format : MPEG Audio
Format version : Version 1
Format profile : Layer 3
Codec ID : 55
Codec ID/Hint : MP3
Duration : 44mn 30s
Bit rate mode : Constant
Bit rate : 256 Kbps
Channel(s) : 2 channels
Sampling rate : 48.0 KHz
Stream size : 81.5 MiB (7%)
Alignment : Aligned on interleaves
Interleave, duration : 40 ms (1.00 video frame)
Interleave, preload duration : 504 ms
Writing library : LAME3.98.4

Скриншоты




Показать сообщения:    

Текущее время: 06-Дек 22:57

Часовой пояс: UTC + 3


Вы не можете начинать темы
Вы не можете отвечать на сообщения
Вы не можете редактировать свои сообщения
Вы не можете удалять свои сообщения
Вы не можете голосовать в опросах
Вы не можете прикреплять файлы к сообщениям
Вы не можете скачивать файлы