Joby Talbot - The Winter s Tale (Christopher Wheeldon, David Briskin) / Джоби Тэлбот - Зимняя сказка (Кристофер Уилдон) [04.20.2014, Ballet, HDTVRip]


 

[Цитировать]

The Winter`s Tale / Зимняя сказка
Год выпуска: 04.20.2014
Лейбл: ROH
Страна-производитель: Великобритания
Жанр: Ballet
Продолжительность: 02:29:43
Композитор: Джоби Талбот / Joby Talbot - Все раздачи этого композитора на трекере
Дирижер: David Briskin
Исполнители музыки: Orchestra Orchestra of the Royal Opera House
Режиссер/Хореограф: Кристофер Уилдон / Christopher Wheeldon
Исполнители:
Leontes - Edward Watson
Hermione - Lauren Cuthbertson
Perdita - Sarah Lamb
Mamillius - Joe Parker
Paulina - Zenaida Yanowsky
Antigonus - Bennet Gartside
Polixenes - Federico Bonelli
Florizel - Steven McRae
Описание:
The world premiere of a new full-length ballet by Artistic Associate Christopher Wheeldon, based on Shakespeare’s enduring tale of love, loss and reconciliation.
Доп. информация: Запись трансляции выполнена MAURICELUGHER, за что ему огромное спасибо.
Качество видео: HDTVRip
Формат/Контейнер: TS
Видео кодек: MPEG2
Аудио кодек: AC3
Видео поток: MPG2 1920x1080 25.00fps 15.5 Mbps
Аудио поток: Dolby AC3 48000Hz 6ch 448 kbps

Mediainfo-2 Part I

General #1
ID : 1 (0x1)
Complete name : 2 Part I.ts
Format : MPEG-TS
File size : 5.79 GiB
Duration : 49mn 24s
Overall bit rate : 16.8 Mbps
Maximum Overall bit rate : 35.5 Mbps
Video #4113
ID : 4113 (0x1011)
Menu ID : 1 (0x1)
Format : MPEG Video
Format version : Version 2
Format profile : Main@High
Format settings, BVOP : Yes
Format settings, Matrix : Custom
Codec ID : 2
Duration : 49mn 24s
Bit rate : 15.5 Mbps
Width : 1 920 pixels
Height : 1 080 pixels
Display aspect ratio : 16:9
Frame rate : 25.000 fps
Color space : YUV
Chroma subsampling : 4:2:0
Bit depth : 8 bits
Scan type : Interlaced
Scan order : Top Field First
Compression mode : Lossy
Bits/(Pixel*Frame) : 0.299
Stream size : 5.35 GiB (92%)
Audio #4352
ID : 4352 (0x1100)
Menu ID : 1 (0x1)
Format : AC-3
Format/Info : Audio Coding 3
Mode extension : CM (complete main)
Codec ID : 129
Duration : 49mn 24s
Bit rate mode : Constant
Bit rate : 448 Kbps
Channel(s) : 6 channels
Channel positions : Front: L C R, Side: L R, LFE
Sampling rate : 48.0 KHz
Bit depth : 16 bits
Compression mode : Lossy
Delay relative to video : -29ms
Stream size : 158 MiB (3%)

Скриншоты




Показать сообщения:    

Текущее время: 03-Дек 12:38

Часовой пояс: UTC + 3


Вы не можете начинать темы
Вы не можете отвечать на сообщения
Вы не можете редактировать свои сообщения
Вы не можете удалять свои сообщения
Вы не можете голосовать в опросах
Вы не можете прикреплять файлы к сообщениям
Вы не можете скачивать файлы