П.И. Чайковский - Лебединое озеро (Жан-Кристоф Майо) / Piotr Ilitch Tchaikovski - Lac (Jean-Christophe Maillot, Leonard Slatkin) [2013, Modern Ballet, SATRip]


 

[Цитировать]

Лебединое озеро / Lac
Год выпуска: 2013
Лейбл: Les Ballet de Monte-Carlo
Страна-производитель: Монако
Жанр: Modern Ballet
Продолжительность: 01:33:10
Композитор: П.И. Чайковский / Piotr Ilitch Tchaikovski
Дирижер: Leonard Slatkin
Исполнители музыки: использована запись 1989 года Saint Louis Symphony Orchestra
Режиссер/Хореограф: Жан-Кристоф Майо / Jean-Christophe Maillot
Исполнители:
Her Majesty The Night – Bernice Coppieters
White Swan – Anja Behrend
Black Swan – April Ball
Prince – Stephan Bourgond
King – Alvaro Priete
Queen – Mimoza Kolke
Avec les danseurs des Ballets de Monte-Carlo
Описание:
This show offers a new interpretation – in the form of a modern thriller – of the most famous ballet in the universal repertoire, Swan Lake, the masterpiece by Tchaikovsky and Petipa.
Доп. информация:
Исходный рип mpg скачан из сети, большое спасибо leen cro
Качество видео: SATRip
Формат/Контейнер: MKV
Видео кодек: H.264
Аудио кодек: AC3
Видео поток: MPEG4 Video (H264) 704x400 25.00fps 2 000 Kbps
Аудио поток: Dolby AC3 48000Hz stereo 256 Kbps

Mediainfo

Format : Matroska
File size : 1.47 GiB
Duration : 1h 33mn
Overall bit rate : 2 259 Kbps
Encoded date : UTC 2014-03-23 04:20:56
Writing application : mkvmerge v2.4.2 ('Oh My God') built on Jan 18 2009 17:30:28
Writing library : libebml v0.7.7 + libmatroska v0.8.1
Video
ID : 1
Format : AVC
Format/Info : Advanced Video Codec
Format profile : High@L4.1
Format settings, CABAC : Yes
Format settings, ReFrames : 3 frames
Format settings, GOP : M=2, N=32
Muxing mode : Container profile=Unknown@4.1
Codec ID : V_MPEG4/ISO/AVC
Duration : 1h 33mn
Bit rate : 2 000 Kbps
Width : 704 pixels
Height : 400 pixels
Display aspect ratio : 16:9
Original display aspect ratio : 16:9
Frame rate mode : Variable
Frame rate : 25.000 fps
Color space : YUV
Chroma subsampling : 4:2:0
Bit depth : 8 bits
Scan type : Progressive
Bits/(Pixel*Frame) : 0.284
Stream size : 1.27 GiB (87%)
Writing library : x264 core 116 r2019M 9cc407d
Encoding settings : cabac=1 / ref=3 / deblock=1:-1:-1 / analyse=0x3:0x133 / me=umh / subme=9 / psy=1 / psy_rd=1.00:0.15 / mixed_ref=1 / me_range=16 / chroma_me=1 / trellis=1 / 8x8dct=1 / cqm=0 / deadzone=21,11 / fast_pskip=1 / chroma_qp_offset=-3 / threads=12 / sliced_threads=0 / nr=0 / decimate=1 / interlaced=0 / bluray_compat=0 / constrained_intra=0 / bframes=3 / b_pyramid=1 / b_adapt=2 / b_bias=0 / direct=3 / weightb=1 / open_gop=0 / weightp=2 / keyint=250 / keyint_min=25 / scenecut=40 / intra_refresh=0 / rc_lookahead=40 / rc=2pass / mbtree=1 / bitrate=2000 / ratetol=1.0 / qcomp=0.60 / qpmin=10 / qpmax=51 / qpstep=4 / cplxblur=20.0 / qblur=0.5 / ip_ratio=1.40 / aq=1:1.00
Audio
ID : 2
Format : AC-3
Format/Info : Audio Coding 3
Mode extension : CM (complete main)
Codec ID : A_AC3
Duration : 1h 33mn
Bit rate mode : Constant
Bit rate : 256 Kbps
Channel(s) : 2 channels
Channel positions : Front: L R
Sampling rate : 48.0 KHz
Bit depth : 16 bits
Stream size : 171 MiB (11%)

Скриншоты




Показать сообщения:    

Текущее время: 07-Дек 17:28

Часовой пояс: UTC + 3


Вы не можете начинать темы
Вы не можете отвечать на сообщения
Вы не можете редактировать свои сообщения
Вы не можете удалять свои сообщения
Вы не можете голосовать в опросах
Вы не можете прикреплять файлы к сообщениям
Вы не можете скачивать файлы