Петр Чайковский - Лебединое Озеро (Мэтью Борн) / Pyotr Tchaikovsky - Swan Lake (Matthew Bourne, David Lloyd-Jones, Richard Winsor, Dominic North, Nina Goldman) [2012, Ballet, BDRip]


 

[Цитировать]

Петр Чайковский - Лебединое Озеро (Мэтью Борн) / Pyotr Tchaikovsky - Swan Lake (Matthew Bourne)
Год выпуска: 2012
Лейбл: Kultur
Страна-производитель: США
Жанр: Ballet
Продолжительность: 01:59:00
Композитор: П.И.Чайковский / P.I.Tchaikovsky
Дирижер: David Lloyd-Jones
Исполнители музыки: New London Orchestra
Режиссер/Хореограф: Мэтью Борн / Matthew Bourne
Исполнители:
Richard Winsor (The Swan/The Stranger), Dominic North (The Prince), Nina Goldman (The Queen), Madelaine Brennan (The Girlfriend), Steven Kirkham (The Private Secretary), Joseph Vaughan (The Young Prince),
Описание:
When it premiered at Sadler’s Wells in 1995, Matthew Bourne’s triumphant modern re-interpretation of SWAN LAKE turned tradition upside down, taking the dance world by storm. Now firmly crowned as a modern day classic, this iconic production is perhaps best-known for replacing the traditional female corps de ballet with a menacing male ensemble. Matthew Bourne blends dance, humour and spectacle with extravagant, award-winning designs by Lez Brotherston, to create a provocative and powerful Swan Lake for our times.
Доп. информация:
Рип с раздачи HDclub
Огромное спасибо BLUE_LIFE
Качество видео: BDRip
Формат/Контейнер: MKV
Видео кодек: H.264
Аудио кодек: AC3
Видео поток: MPEG4 Video (H264) 1920x1080 25.00fps 11.2 Mbps
Аудио поток: Dolby AC3 48000Hz 6ch 448 Kbps

Mediainfo

Format : Matroska
File size : 9.69 GiB
Duration : 2h 0mn
Overall bit rate : 11.6 Mbps
Encoded date : UTC 2014-03-31 13:01:22
Writing application : mkvmerge v2.4.2 ('Oh My God') built on Jan 18 2009 17:30:28
Writing library : libebml v0.7.7 + libmatroska v0.8.1
Video
ID : 1
Format : AVC
Format/Info : Advanced Video Codec
Format profile : High@L4.1
Format settings, CABAC : Yes
Format settings, ReFrames : 3 frames
Format settings, GOP : M=1, N=16
Muxing mode : Container profile=Unknown@4.1
Codec ID : V_MPEG4/ISO/AVC
Duration : 2h 0mn
Bit rate : 11.2 Mbps
Width : 1 920 pixels
Height : 1 080 pixels
Display aspect ratio : 16:9
Frame rate mode : Variable
Frame rate : 25.000 fps
Color space : YUV
Chroma subsampling : 4:2:0
Bit depth : 8 bits
Scan type : Progressive
Bits/(Pixel*Frame) : 0.216
Stream size : 9.12 GiB (94%)
Writing library : x264 core 116 r2019M 9cc407d
Encoding settings : cabac=1 / ref=3 / deblock=1:-1:-1 / analyse=0x3:0x133 / me=umh / subme=9 / psy=1 / psy_rd=1.00:0.15 / mixed_ref=1 / me_range=16 / chroma_me=1 / trellis=1 / 8x8dct=1 / cqm=0 / deadzone=21,11 / fast_pskip=1 / chroma_qp_offset=-3 / threads=12 / sliced_threads=0 / nr=0 / decimate=1 / interlaced=0 / bluray_compat=0 / constrained_intra=0 / bframes=3 / b_pyramid=1 / b_adapt=2 / b_bias=0 / direct=3 / weightb=1 / open_gop=0 / weightp=2 / keyint=250 / keyint_min=25 / scenecut=40 / intra_refresh=0 / rc_lookahead=40 / rc=2pass / mbtree=1 / bitrate=11200 / ratetol=1.0 / qcomp=0.60 / qpmin=10 / qpmax=51 / qpstep=4 / cplxblur=20.0 / qblur=0.5 / ip_ratio=1.40 / aq=1:1.00
Language : English
Audio
ID : 2
Format : AC-3
Format/Info : Audio Coding 3
Mode extension : CM (complete main)
Codec ID : A_AC3
Duration : 2h 0mn
Bit rate mode : Constant
Bit rate : 448 Kbps
Channel(s) : 6 channels
Channel positions : Front: L C R, Side: L R, LFE
Sampling rate : 48.0 KHz
Bit depth : 16 bits
Stream size : 385 MiB (4%)

Скриншоты




Показать сообщения:    

Текущее время: 11-Дек 13:01

Часовой пояс: UTC + 3


Вы не можете начинать темы
Вы не можете отвечать на сообщения
Вы не можете редактировать свои сообщения
Вы не можете удалять свои сообщения
Вы не можете голосовать в опросах
Вы не можете прикреплять файлы к сообщениям
Вы не можете скачивать файлы