Петр Ильич Чайковский - Спящая красавица (Мариус Петипа, Валерий Овсяников) / Tchaikovski - The Sleeping Beauty (Marius Petipa, Valerly Ovsyanikov, Sarah Lamb) [2014, Ballet, HDTVRip]



Спящая красавица / The Sleeping Beauty
Год выпуска: 2014
Лейбл: Royal Opera House
Страна-производитель: Великобритания
Жанр: Ballet
Продолжительность: 2:53:10
Композитор: Петр Ильич Чайковский
Исполнители музыки: Orchestra of the Royal Opera House
Дирижер: Valerly Ovsyanikov
Режиссер/Хореограф: Мариус Петипа / Marius Petipa
Additional Choreography: Frederick Ashton, Anthony Dowell, Christopher Wheeldon
Princess Aurora - Sarah Lamb
Prince Desire - Steven McRae
Lilac Fairy - Laura McCulloch
Carabosse - Kristen McNally
King Florestan XXIV - Christopher Saunders
His Queen - Elizabeth McGorian
Треклист: Балет в трех актах
Описание: First staged in St Petersburg in 1890, The Sleeping Beauty is the
pinnacle of classical ballet: a perfect marriage of Petipa’s
choreography and Tchaikovsky’s music and a glorious challenge for
every dancer on stage. It is also The Royal Ballet’s signature work.
To mark the Company’s 75th birthday in 2006, Monica Mason and
Christopher Newton revitalized its landmark 1946 production, which
re-established Petipa’s choreography as recorded by Imperial Ballet
rйgisseur Nicholas Sergeyev, to a scenario and staging developed
by Ninette de Valois herself, founder of The Royal Ballet.
With Oliver Messel’s gorgeous original designs wonderfully
re-imagined by Peter Farmer, and additional choreography by
Anthony Dowell, Christopher Wheeldon and Frederick Ashton, today’s
Sleeping Beauty not only captures the mood of the original but shows
that this is very much a living work for The Royal Ballet, growing
and changing with the Company while celebrating its past.
Доп. информация: Запись трансляции выполнена MAURICELUGHER, за что ему огромное спасибо.
Качество видео: HDTVRip
Формат/Контейнер: TS
Видео кодек: MPEG2
Аудио кодек: MP2
Видео поток: MPG2 1920x1080 25.00fps 15.5 Mbps
Аудио поток: MPEG Audio 48000Hz stereo 256 Kbps

Mediainfo-Part I

Format : MPEG-TS
File size : 3.91 GiB
Duration : 33mn 50s
Overall bit rate : 16.5 Mbps
ID : 308 (0x134)
Menu ID : 1 (0x1)
Format : MPEG Video
Format version : Version 2
Format profile : Main@High
Format settings, BVOP : Yes
Format settings, Matrix : Default
Duration : 33mn 50s
Bit rate mode : Constant
Bit rate : 15.5 Mbps
Width : 1 920 pixels
Height : 1 080 pixels
Display aspect ratio : 16:9
Frame rate : 25.000 fps
Color space : YUV
Chroma subsampling : 4:2:0
Bit depth : 8 bits
Scan type : Interlaced
Scan order : Top Field First
Bits/(Pixel*Frame) : 0.298
Stream size : 3.65 GiB (93%)
ID : 257 (0x101)
Menu ID : 1 (0x1)
Format : MPEG Audio
Format version : Version 1
Format profile : Layer 2
Duration : 33mn 50s
Bit rate mode : Constant
Bit rate : 256 Kbps
Channel(s) : 2 channels
Sampling rate : 48.0 KHz
Video delay : -4ms
Stream size : 62.0 MiB (2%)


Display posts:    

Current time is: 25-Oct 15:03

All times are UTC + 3

You cannot post new topics in this forum
You cannot reply to topics in this forum
You cannot edit your posts in this forum
You cannot delete your posts in this forum
You cannot vote in polls in this forum
You cannot attach files in this forum
You cannot download files in this forum