Armand Amar, Bruce Springsteen, Tom Waits - Inanna (Carolyn Carlson) / Инанна (Каролин Карлсон) [2012, Modern dance, SATRip]


 

[Цитировать]

Инанна / Inanna
Год выпуска: 2012
Лейбл: 24 Images, Arte
Страна-производитель: Франция
Жанр: Modern dance
Продолжительность: 1:27:19
Музыка: Armand Amar (оригинальная музыка), Bruce Springsteen, Tom Waits (дополнительная музыка)
Режиссер/Хореограф: Каролин Карлсон / Carolyn Carlson
Сценография: Euan Brunet-Smith
Режиссер ТВ: Charles Picq
Исполнители:
Chinatsu Kosakatani,
Isida Micani,
Sara Orselli,
Sonia Rocha,
Cristina Santucci,
Sara Simeoni,
Alessandra Vigna
Описание: Постановка хореографа Каролины Карлсон с рассказом в танце о жизни семи женщин, можно сказать, является Одой воплощения женской сущности. Запись спектакля произведена в Театре «Шатле» в Париже в 2012 году. Балет выпущен в в 2005 году Национальным центром хореографии во французском Рубе.
Доп. информация: Рип и описание alex7, за что ему огромное спасибо.
семпл http://multi-up.com/946805
Качество видео: SATRip
Формат/Контейнер: AVI
Видео кодек: DivX
Аудио кодек: MP3
Видео поток: DivX 5 704x384 25.00fps
Аудио поток: MPEG Audio Layer 3 48000Hz stereo 256kbps

Mediainfo

Format : AVI
Format/Info : Audio Video Interleave
File size : 838 MiB
Duration : 1h 27mn
Overall bit rate : 1 342 Kbps
Writing application : Lavf51.12.1
Video
ID : 0
Format : MPEG-4 Visual
Format profile : Simple@L1
Format settings, BVOP : No
Format settings, QPel : No
Format settings, GMC : No warppoints
Format settings, Matrix : Default (H.263)
Codec ID : DX50
Codec ID/Hint : DivX 5
Duration : 1h 27mn
Bit rate : 1 073 Kbps
Width : 704 pixels
Height : 384 pixels
Display aspect ratio : 16:9
Frame rate : 25.000 fps
Color space : YUV
Chroma subsampling : 4:2:0
Bit depth : 8 bits
Scan type : Progressive
Bits/(Pixel*Frame) : 0.159
Stream size : 670 MiB (80%)
Writing library : Lavc51.40.4
Audio
ID : 1
Format : MPEG Audio
Format version : Version 1
Format profile : Layer 3
Mode : Joint stereo
Codec ID : 55
Codec ID/Hint : MP3
Duration : 1h 27mn
Bit rate mode : Constant
Bit rate : 256 Kbps
Channel(s) : 2 channels
Sampling rate : 48.0 KHz
Stream size : 160 MiB (19%)
Alignment : Aligned on interleaves
Interleave, duration : 24 ms (0.60 video frame)
Interleave, preload duration : 24 ms

Скриншоты




Показать сообщения:    

Текущее время: 09-Дек 03:07

Часовой пояс: UTC + 3


Вы не можете начинать темы
Вы не можете отвечать на сообщения
Вы не можете редактировать свои сообщения
Вы не можете удалять свои сообщения
Вы не можете голосовать в опросах
Вы не можете прикреплять файлы к сообщениям
Вы не можете скачивать файлы