Сергей Прокофьев - Золушка (Рудольф Нуреев) / Serguei Prokofiev - Cendrillon (Rudolf Nureev, Koen Kessels, Agnes Letestu, Jose Martinez) [2007,Modern ballet, HDTVRip]


 

[Цитировать]

Золушка / Cendrillon
Год выпуска: 2007
Страна-производитель: Франция
Жанр: Modern ballet
Продолжительность: 02:05:17
Перевод: не требуется
Субтитры: нет
Режиссер/Хореограф: Рудольф Нуреев / Rudolf Nureev
Композитир: Сергей Прокофьев / Serguei Prokofiev
Исполнители музыки: Оркестр Национальной парижской оперы
Дирижер: Koen Kessels
Исполнители:
Cendrillon - Agnes Letestu
Les soeurs - Laetitia Pujol
- Stephanie Romberg
La mere - Stephane Phavorin
L acteur vedette - Jose Martinez
Le Producteur – Wilfried Romoli
Описание:
Рудольф Нуреев перенес действие “Золушки” в Голливуд тридцатых годов прошлого века. Золушка — нелюбимая падчерица мачехи-актрисы, стремящейся пристроить своих дочерей в кино. Принц — киноактер, пользующийся шумным успехом у женщин, а Фея — всевластный магнат-кинопродюсер. Здесь много ссылок на кинематограф. Золушка мечтательно танцует с вешалкой для шляп, подражая знаменитому танцу Фреда Астера с метлой. Нуреев также вводит в балет фарсовые выходки в чаплиновском духе. Балет заканчивается счастливо: кроме возлюбленного Золушка получает еще и контракт с киностудией.
семпл http://multi-up.com/946511
Доп. информация: Рип alex7, за что ему огромное спасибо
Качество видео: HDTVRip
Формат/Контейнер: AVI
Видео кодек: DivX
Аудио кодек: MP3
Видео поток: DivX 5 1920x1080 25.00fps
Аудио поток: MPEG Audio Layer 3 48000Hz stereo 256kbps
На трекере присутствует раздача 2хDVD9 - Размер: 11,14 GB

Mediainfo

Format : AVI
Format/Info : Audio Video Interleave
Format profile : OpenDML
File size : 8.79 GiB
Duration : 2h 5mn
Overall bit rate : 10.0 Mbps
Writing application : VirtualDubModRus 1.5.10.2 (build 2542/release)
Writing library : VirtualDubMod build 2542/release
Video
ID : 0
Format : MPEG-4 Visual
Format profile : Simple@L1
Format settings, BVOP : No
Format settings, QPel : No
Format settings, GMC : No warppoints
Format settings, Matrix : Default (H.263)
Codec ID : DX50
Codec ID/Hint : DivX 5
Duration : 2h 5mn
Bit rate : 9 779 Kbps
Width : 1 920 pixels
Height : 1 080 pixels
Display aspect ratio : 16:9
Frame rate : 25.000 fps
Color space : YUV
Chroma subsampling : 4:2:0
Bit depth : 8 bits
Scan type : Progressive
Bits/(Pixel*Frame) : 0.189
Stream size : 8.56 GiB (97%)
Writing library : Lavc51.40.4
Audio
ID : 1
Format : MPEG Audio
Format version : Version 1
Format profile : Layer 3
Mode : Joint stereo
Codec ID : 55
Codec ID/Hint : MP3
Duration : 2h 5mn
Bit rate mode : Constant
Bit rate : 256 Kbps
Channel(s) : 2 channels
Sampling rate : 48.0 KHz
Stream size : 229 MiB (3%)
Alignment : Split accross interleaves
Interleave, duration : 40 ms (1.00 video frame)
Interleave, preload duration : 500 ms

Скриншоты




Показать сообщения:    

Текущее время: 11-Дек 14:57

Часовой пояс: UTC + 3


Вы не можете начинать темы
Вы не можете отвечать на сообщения
Вы не можете редактировать свои сообщения
Вы не можете удалять свои сообщения
Вы не можете голосовать в опросах
Вы не можете прикреплять файлы к сообщениям
Вы не можете скачивать файлы