Сергей Прокофьев - Золушка (Владимир Малахов, Полина Семионова, Артем Шпилевский) / Sergei Prokofiev - Cinderella (Vladimir Malakhov, Vello Pahn) [2004, Ballet, SATRip]


 

[Цитировать]

Золушка / Cinderella
Год выпуска: 2004
Лейбл: ZDF/3Sat
Страна-производитель: Германия
Жанр: Ballet
Продолжительность: 01:43:33
Композитор: Сергей Прокофьев / Sergei Prokofiev
Дирижер: Vello Pahn
Оркестр: Staatskapelle Berlin
Режиссер/Хореограф: Владимир Малахов / Vladimir Malakhov
Исполнители:
Polina Semionova – Cinderella,
Vladimir Malakhov and Ronald Savkovic - Stepsisters,
Artem Shpilevsky – Prince,
Staatsballett Berlin
Треклист: Балет в двух действиях
Перевод: Не требуется. Комментарии Владимира Малахова и Полины Семионовой на русском с немецкими субтитрами

Описание

Сюжет малаховского балета заключается в следующем: действие начинается не в доме лесничего, а в балетном классе. Идет подготовка к репетиции нового балета (возможно - «Золушки»). Директиса труппы (Виара Натчева) распределяет роли. У этой дамы две фаворитки, Толстушка - Владимир Малахов и Худышка- Рональд Савкович (на немецком языке их зовут «сладкоежка» и «любительница выпить»): одна постоянно лакомится конфетами, вторая время от времени прикладывается к бутылке, спрятанной в сумке между балетными туфлями. Хореограф (Андрей Клемм) и прима-балерина труппы (Беатрис Кноп) выдвигают на главную роль молоденькую танцовщицу из кордебалета - Золушку, но директриса ее отвергает. После окончания репетиции, оставшись одна в классе, танцовщица исполняет вариацию из будущего балета, затем ложится на пол и засыпает. Ей снится сказка про Золушку. Появляется Фея (прима-балерина театра), которая снаряжает ее на бал, затем ей снится бал, где присутствует мать Принца (директриса), среди гостей - Толстушка и Худышка. Но Принц влюбляется в Золушку, танцует с ней, пока в 12 часов она не убегает: волшебство кончается в полночь. Поскольку речь не идет о потерянной туфельке, Малахов сократил музыку «погони» Принца за Золушкой. Последняя картина балета начинается опять в репетиционном классе. Утро, Золушка просыпается, собираются танцовщики на репетицию. Приходит директриса и приводит в класс нового артиста, премьера, который будет исполнять роль Принца. Премьер (он же - Принц из сна Золушки) не узнает Золушку: ведь это он снился ей, а не она ему! Но он испытывает смутное чувство уже состоявшейся раньше встречи, а главное - девушка привлекает его как танцовщица. Премьер выбирает Золушку в партнерши. Последний любовный дует Золушки и Принца артисты исполняют уже как часть спектакля. Но балет Малахова не заканчивается дуэтом. После окончания премьеры к Золушке подбегают танцовщики, хореограф, все ее поздравляют. Казалось бы, вот и счастливый конец! Золушка закрывает лицо руками, не то смеясь, не то плача от счастья. А когда она отнимает руки от лица, то видит, что сцена пуста. Спектакль окончен, закончилось и театральное волшебство. Артисты, включая Принца, разбежались по грим-уборным переодеваться... на полу сцены у ног Золушки лежит огромный букет цветов. Подняв его, танцовщица выходит к рампе на аплодисменты. Да, она стала балериной и к ней пришла слава, но на этой вышине она оказалась одинокой...
Нина Аловерт
Доп. информация: Рип alex7, за что ему огромное спасибо.
Качество видео: SATRip
Формат/Контейнер: AVI
Видео кодек: DivX
Аудио кодек: MP3
Видео поток: DivX 5 720x400 25.00fps
Аудио поток: MPEG Audio Layer 3 48000Hz stereo 128kbps
семпл http://multi-up.com/946415

Mediainfo

Format : AVI
Format/Info : Audio Video Interleave
File size : 917 MiB
Duration : 1h 43mn
Overall bit rate : 1 238 Kbps
Writing application : VirtualDubModRus 1.5.10.2 (build 2542/release)
Writing library : VirtualDubMod build 2542/release
Video
ID : 0
Format : MPEG-4 Visual
Format settings, BVOP : Yes
Format settings, QPel : No
Format settings, GMC : No warppoints
Format settings, Matrix : Default (H.263)
Muxing mode : Packed bitstream
Codec ID : DX50
Codec ID/Hint : DivX 5
Duration : 1h 43mn
Bit rate : 1 100 Kbps
Width : 720 pixels
Height : 400 pixels
Display aspect ratio : 16:9
Frame rate : 25.000 fps
Color space : YUV
Chroma subsampling : 4:2:0
Bit depth : 8 bits
Scan type : Progressive
Bits/(Pixel*Frame) : 0.153
Stream size : 815 MiB (89%)
Writing library : DivX 5.2.1 Alpha (UTC 2004-09-08)
Audio
ID : 1
Format : MPEG Audio
Format version : Version 1
Format profile : Layer 3
Mode : Joint stereo
Mode extension : MS Stereo
Codec ID : 55
Codec ID/Hint : MP3
Duration : 1h 43mn
Bit rate mode : Constant
Bit rate : 128 Kbps
Channel(s) : 2 channels
Sampling rate : 48.0 KHz
Stream size : 94.8 MiB (10%)
Alignment : Aligned on interleaves
Interleave, duration : 40 ms (1.00 video frame)
Interleave, preload duration : 504 ms

Скриншоты




Показать сообщения:    

Текущее время: 08-Дек 21:10

Часовой пояс: UTC + 3


Вы не можете начинать темы
Вы не можете отвечать на сообщения
Вы не можете редактировать свои сообщения
Вы не можете удалять свои сообщения
Вы не можете голосовать в опросах
Вы не можете прикреплять файлы к сообщениям
Вы не можете скачивать файлы