Roland Petit - Pique Dame/ Ролан Пети - Пиковая дама ( Николай Цискаридзе, Илзе Лиепа, Светлана Лунькина) [2005, ballet, DVB-AVC]


 

[Цитировать]

Roland Petit - Pique Dame/ Ролан Пети - Пиковая дама
Год выпуска: 2005
Жанр: ballet
Продолжительность: 01:12:11
Режиссер/Хореограф: Ролан Пети
Исполнители: Николай Цискаридзе, Илзе Лиепа, Светлана Лунькина
Дирижер: Владимир Андропов
Описание: Балет Ролана Пети "Пиковая дама" на музыку П.И. Чайковского. Съемка 2005 год. Большой театр России.
Вступительное слово - Николай Цискаридзе.
Доп. информация: Запись с канала "Культура" 11.01.2014
Качество видео: DVB-AVC
Формат/Контейнер: MKV
Видео кодек: H.264
Аудио кодек: MP2
Видео поток: 720x576 (4:3) 50fps 1138 Kbps
Аудио поток: 48000Hz 2 ch mono 160kbps

MI

Format : Matroska
Format version : Version 4 / Version 2
File size : 684 MiB
Duration : 1h 12mn
Overall bit rate mode : Constant
Overall bit rate : 1 325 Kbps
Encoded date : UTC 2014-01-11 21:07:36
Writing application : mkvmerge v6.1.0 ('Old Devil') built on Mar 4 2013 09:10:42
Writing library : libebml v1.3.0 + libmatroska v1.4.0
Video
ID : 1
Format : AVC
Format/Info : Advanced Video Codec
Format profile : Main@L3.0
Format settings, CABAC : Yes
Format settings, ReFrames : 3 frames
Codec ID : V_MPEG4/ISO/AVC
Duration : 1h 12mn
Bit rate mode : Constant
Bit rate : 1 138 Kbps
Nominal bit rate : 1 300 Kbps
Width : 720 pixels
Height : 576 pixels
Display aspect ratio : 4:3
Frame rate mode : Constant
Frame rate : 25.000 fps
Standard : PAL
Color space : YUV
Chroma subsampling : 4:2:0
Bit depth : 8 bits
Scan type : Interlaced
Bits/(Pixel*Frame) : 0.110
Stream size : 588 MiB (86%)
Default : Yes
Forced : No
Color primaries : BT.601 PAL
Transfer characteristics : BT.470 System B, BT.470 System G
Matrix coefficients : BT.601
Audio
ID : 2
Format : MPEG Audio
Format version : Version 1
Format profile : Layer 2
Codec ID : A_MPEG/L2
Codec ID/Hint : MP2
Duration : 1h 12mn
Bit rate mode : Constant
Bit rate : 160 Kbps
Channel(s) : 2 channels
Sampling rate : 48.0 KHz
Compression mode : Lossy
Delay relative to video : 21ms
Stream size : 82.6 MiB (12%)
Default : Yes
Forced : No

Скриншоты




Показать сообщения:    

Текущее время: 11-Дек 09:09

Часовой пояс: UTC + 3


Вы не можете начинать темы
Вы не можете отвечать на сообщения
Вы не можете редактировать свои сообщения
Вы не можете удалять свои сообщения
Вы не можете голосовать в опросах
Вы не можете прикреплять файлы к сообщениям
Вы не можете скачивать файлы