Петр Ильич Чайковский - Щелкунчик / The Nutcracker (Peter Wright, Tom Seligman) [2013, Ballet, HDTVRip]


 

[Цитировать]

The Nutcracker / Щелкунчик
Год выпуска: 2013
Лейбл: Royal Opera House
Страна-производитель: Великобритания
Жанр: Ballet
Продолжительность: 01:46:23
Композитор: Петр Ильич Чайковский
Дирижер: Tom Seligman
Исполнители музыки: Orchestra of the Royal Opera House
Режиссер/Хореограф: Peter Wright after Lev Ivanov
Исполнители:
The Sugar Plum Fairy - Laura Morera
The Prince - Federico Bonelli
Herr Drosselmeyer - Gary Avis
Clara - Francesca Hayward
Hans Peter / The Nutcracker - Alexander Campbell
Описание: Запись трансляции от 12.12.2013
Доп. информация: Запись трансляции выполнена MAURICELUGHER, за что ему огромное спасибо.
Качество видео: HDTVRip
Формат/Контейнер: TS
Видео кодек: MPEG2
Аудио кодек: AC3
Видео поток: MPG2 1920x1080 25.00fps
Аудио поток: Dolby AC3 48000Hz 6ch

Mediainfo - Part I

Format : MPEG-TS
File size : 5.90 GiB
Duration : 50mn 23s
Overall bit rate : 16.8 Mbps
Video
ID : 308 (0x134)
Menu ID : 1 (0x1)
Format : MPEG Video
Format version : Version 2
Format profile : Main@High
Format settings, BVOP : Yes
Format settings, Matrix : Default
Duration : 50mn 23s
Bit rate mode : Constant
Bit rate : 15.5 Mbps
Width : 1 920 pixels
Height : 1 080 pixels
Display aspect ratio : 16:9
Frame rate : 25.000 fps
Color space : YUV
Chroma subsampling : 4:2:0
Bit depth : 8 bits
Scan type : Interlaced
Scan order : Top Field First
Bits/(Pixel*Frame) : 0.298
Stream size : 5.45 GiB (92%)
Audio
ID : 256 (0x100)
Menu ID : 1 (0x1)
Format : AC-3
Format/Info : Audio Coding 3
Mode extension : CM (complete main)
Duration : 50mn 23s
Bit rate mode : Constant
Bit rate : 448 Kbps
Channel(s) : 6 channels
Channel positions : Front: L C R, Side: L R, LFE
Sampling rate : 48.0 KHz
Bit depth : 16 bits
Video delay : -1ms
Stream size : 161 MiB (3%)
Language : int
Menu
ID : 32 (0x20)
Menu ID : 1 (0x1)
Duration : 50mn 23s
List : 256 (0x100) (AC-3, int) / 308 (0x134) (MPEG Video)
Language : int
Maximum bit rate : 17819200

Скриншоты




Показать сообщения:    

Текущее время: 04-Дек 06:48

Часовой пояс: UTC + 3


Вы не можете начинать темы
Вы не можете отвечать на сообщения
Вы не можете редактировать свои сообщения
Вы не можете удалять свои сообщения
Вы не можете голосовать в опросах
Вы не можете прикреплять файлы к сообщениям
Вы не можете скачивать файлы