Antonio Vivaldi - Light (Maurice Bejart, Gil Roman, Bejart ballet Lausanne) / Антонио Вивальди - Свет (Морис Бежар, Жиль Роман) [2013, Ballet, HDTVRip]


 

[Цитировать]

Light / Свет
Год выпуска: 2013
Лейбл: MEZZO
Страна-производитель: Франция
Жанр: Ballet
Продолжительность: 01:17:06
Режиссер ТВ: Arantxa Aguirre
Музыка: Antonio Vivaldi / Антонио Вивальди
Режиссер/Хореограф: Maurice Bejart / Морис Бежар
Artistic Director: Gil Roman
Исполнители:
LIGHT - Kateryna Shalkina
LA FEMME - Elisabet Ros
VENEZIA - Lisa Cano
POVERELLO - Julien Favreau
LE MARQUIS - Gabriel Arenas Ruiz
LE PRETRE ROUX - Oscar Chacon
GIRALUCE - Marco Merenda
LES COULEURS
Keisuke Nasuno – Masayoshi Onuki – Laurence Rig
Hector Navarro – Harrison Wynn – Kwinten Guilliams
Denovane Victoire
PULCINELLA
Angelo Murdocco – Jasmine Cammarota – Cosima Munoz (Noir)
DUETTO
Masayoshi Onuki – Laurence Rigg
Bejart ballet Lausanne
Описание: Запись балета «Свет» Мориса Бежара, восстановленного Жилем Романом (Gil Roman) к 25-летию Bejart ballet Lausanne и представленного 13.06.2013 на сцене театра «Шайо» в Париже.
Доп. информация: Рип alex7, за что ему огромнейшее спасибо.
Семпл http://multi-up.com/908409
Качество видео: HDRip
Формат/Контейнер: MKV
Видео кодек: H.264
Аудио кодек: MP3
Видео поток: MPEG4 Video (H264) 1280x720 25.00fps
Аудио поток: MPEG Audio Layer 3 48000Hz stereo 256 Kbps

Mediainfo

Format : Matroska
File size : 1.85 GiB
Duration : 1h 17mn
Overall bit rate : 3 436 Kbps
Encoded date : UTC 2013-09-30 15:29:41
Writing application : mkvmerge v2.4.2 ('Oh My God') built on Jan 18 2009 17:30:28
Writing library : libebml v0.7.7 + libmatroska v0.8.1
Video
ID : 1
Format : AVC
Format/Info : Advanced Video Codec
Format profile : Baseline@L3.1
Format settings, CABAC : No
Format settings, ReFrames : 2 frames
Format settings, GOP : M=1, N=32
Muxing mode : Container profile=Unknown@3.1
Codec ID : V_MPEG4/ISO/AVC
Duration : 1h 17mn
Bit rate : 3 111 Kbps
Width : 1 280 pixels
Height : 720 pixels
Display aspect ratio : 16:9
Frame rate : 25.000 fps
Standard : PAL
Color space : YUV
Chroma subsampling : 4:2:0
Bit depth : 8 bits
Scan type : Progressive
Bits/(Pixel*Frame) : 0.135
Stream size : 1.68 GiB (91%)
Color primaries : BT.470-6 System B, BT.470-6 System G, BT.601-6 625, BT.1358 625, BT.1700 625 PAL, BT.1700 625 SECAM
Transfer characteristics : BT.470-6 System B, BT.470-6 System G
Matrix coefficients : BT.470-6 System B, BT.470-6 System G, BT.601-6 625, BT.1358 625, BT.1700 625 PAL, BT.1700 625 SECAM, IEC 61966-2-4 601
Audio
ID : 2
Format : MPEG Audio
Format version : Version 1
Format profile : Layer 3
Mode : Joint stereo
Codec ID : A_MPEG/L3
Codec ID/Hint : MP3
Duration : 1h 17mn
Bit rate mode : Constant
Bit rate : 256 Kbps
Channel(s) : 2 channels
Sampling rate : 48.0 KHz
Stream size : 141 MiB (7%)

Скриншоты




Показать сообщения:    

Текущее время: 06-Дек 22:55

Часовой пояс: UTC + 3


Вы не можете начинать темы
Вы не можете отвечать на сообщения
Вы не можете редактировать свои сообщения
Вы не можете удалять свои сообщения
Вы не можете голосовать в опросах
Вы не можете прикреплять файлы к сообщениям
Вы не можете скачивать файлы