Игорь Стравинский - Жар-птица (Джеймс Куделка, Валерий Гергиев) / Igor Stravinsky - The Firebird (James Kudelka, National Ballet of Canada) [2003, Ballet, HDTVRip]


 

[Цитировать]

Жар-птица / The Firebird
Год выпуска: 2003
Лейбл: Rhombus Media, Brava
Страна-производитель: Канада
Жанр: Ballet
Продолжительность: 00:52:29
Композитор и автор либретто: Игорь Стравинский / Igor Stravinsky
Исполнители музыки: использована запись Оркестра Кировского театра
Дирижер: Валерий Гергиев
Режиссер/Хореограф: Джеймс Куделка / James Kudelka
Исполнители:
Грета Ходкинсон (Жар-птица),
Александр Антониевич (Иван-царевич),
Ребекка Римсэй (Василиса Прекрасная),
Рекс Харрингтон (Кащей Бессмертный),
Виктория Бертрам (Жена Кащея)
National Ballet of Canada
Описание: Запись балета в хореографии Джеймса Куделки, в котором классический балет сочетается с магическими визуальными эффектами.
Доп. информация: Рип alex7, за что ему огромное спасибо.
Семпл http://multi-up.com/899292
Качество видео: HDTVRip
Формат/Контейнер: MKV
Видео кодек: H.264
Аудио кодек: AC3
Видео поток: MPEG4 Video (H264) 1280x720 25.00fps
Аудио поток: Dolby AC3 48000Hz 6ch 448 Kbps

Mediainfo

Format : Matroska
File size : 2.39 GiB
Duration : 52mn 29s
Overall bit rate : 6 511 Kbps
Writing application : Lavf51.12.1
Writing library : Lavf51.12.1
Video
ID : 1
Format : AVC
Format/Info : Advanced Video Codec
Format profile : Baseline@L1.3
Format settings, CABAC : No
Format settings, ReFrames : 1 frame
Muxing mode : Container profile=Unknown@1.3
Codec ID : V_MPEG4/ISO/AVC
Duration : 52mn 29s
Bit rate : 5 933 Kbps
Width : 1 280 pixels
Height : 720 pixels
Display aspect ratio : 16:9
Frame rate : 25.000 fps
Color space : YUV
Chroma subsampling : 4:2:0
Bit depth : 8 bits
Scan type : Progressive
Bits/(Pixel*Frame) : 0.258
Stream size : 2.18 GiB (91%)
Audio
ID : 2
Format : AC-3
Format/Info : Audio Coding 3
Mode extension : CM (complete main)
Codec ID : A_AC3
Duration : 52mn 29s
Bit rate mode : Constant
Bit rate : 448 Kbps
Channel(s) : 6 channels
Channel positions : Front: L C R, Side: L R, LFE
Sampling rate : 48.0 KHz
Bit depth : 16 bits
Stream size : 168 MiB (7%)
Language : English

Скриншоты




Показать сообщения:    

Текущее время: 05-Дек 19:34

Часовой пояс: UTC + 3


Вы не можете начинать темы
Вы не можете отвечать на сообщения
Вы не можете редактировать свои сообщения
Вы не можете удалять свои сообщения
Вы не можете голосовать в опросах
Вы не можете прикреплять файлы к сообщениям
Вы не можете скачивать файлы