Maurice Ravel, Игорь Стравинский, Claude Debussy, Bedrich Smetana, Antonin Dvorak -Soiree de Gala a L Opera Bastille - Bolero, Жар-птица, Clouds (Vello Pаhn, Maurice Bеjart, Jiri Kylian) / Торжественный вечер в Опере Бастилия [2008, Ballet, HDTVRip]


 

[Цитировать]

Soiree de Gala a L Opera Bastille / Торжественный вечер в Опере Бастилия
Год выпуска: 2008
Лейбл: MEZZO
Страна-производитель: Франция
Жанр: Ballet
Продолжительность: 01:07:00
Дирижер: Велло Пяхн / Vello Pаhn)
Исполнители музыки: Оркестр Национальной парижской оперы / Оrchestre de l Opеra national de Paris
Режиссер видео: Дон Кент / Don Kent
Режиссер/Хореограф: Maurice Bеjart, Jiri Kylian
Исполнители: Кордебалет и оркестр Национальной парижской оперы / Corps de Ballet et orchestre de l Opera national de Paris
Треклист:
1. Bolero / Болеро
Хореграфия: Maurice Bejart
Исполнители: Nicolas Le Riche, Yann Bridard, Karl Paquette.
Corps de Ballet Opera national de Paris
Музыка: Maurice Ravel
Исполнители музыки: Orchestre de l Opera national de Paris
2. L Oiseau de feu / Жар Птица
Хореграфия: Maurice Bejart
Исполнители: Benjamin Pech, Karl Paquette
Corps de Ballet Opera national de Paris
Музыка: Igor Stravinsky
Исполнители музыки:vOrchestre de l Opera national de Paris
3. Clair de lune.
Музыка: Claude Debussy
Orchestration D Andre Caplet
4. La Fiancee Vendue
Dance des comeitns a l acte III
Музыка: Bedrich Smetana
Ed. Dilia / Heugel
5. Nuages / Облака
Хореграфия: Jiri Kylian
Исполнители: Dorothee Gilbert, Manuel Legris.
Corps de Ballet Opera national de Paris
Музыка: Claude Debussy
Исполнители музыки: Orchestre de l Opera national de Paris
6. Danse slave opus 72 №8
Музыка: Antonin Dvorak
Описание: Запись новогоднего Гала концерта из оперы Бастилии (L Opеra Bastille) состоявшегося 31/12/2008.
Доп. информация: Рип alex7 за что ему огромное спасибо.
Семпл http://multi-up.com/899280
Качество видео: HDTVRip
Формат/Контейнер: MKV
Видео кодек: H.264
Аудио кодек: MP3
Видео поток: MPEG4 Video (H264) 1280x720 25.00fps
Аудио поток: MPEG Audio Layer 3 48000Hz stereo 256 Kbps

Mediainfo

Format : Matroska
File size : 1.64 GiB
Duration : 1h 7mn
Overall bit rate : 3 511 Kbps
Writing application : Lavf51.12.1
Writing library : Lavf51.12.1
Video
ID : 1
Format : AVC
Format/Info : Advanced Video Codec
Format profile : Baseline@L3.1
Format settings, CABAC : No
Format settings, ReFrames : 2 frames
Format settings, GOP : M=1, N=32
Muxing mode : Container profile=Unknown@3.1
Codec ID : V_MPEG4/ISO/AVC
Duration : 1h 7mn
Bit rate : 3 185 Kbps
Width : 1 280 pixels
Height : 720 pixels
Display aspect ratio : 16:9
Frame rate : 25.000 fps
Standard : PAL
Color space : YUV
Chroma subsampling : 4:2:0
Bit depth : 8 bits
Scan type : Progressive
Bits/(Pixel*Frame) : 0.138
Stream size : 1.49 GiB (91%)
Color primaries : BT.470-6 System B, BT.470-6 System G, BT.601-6 625, BT.1358 625, BT.1700 625 PAL, BT.1700 625 SECAM
Transfer characteristics : BT.470-6 System B, BT.470-6 System G
Matrix coefficients : BT.470-6 System B, BT.470-6 System G, BT.601-6 625, BT.1358 625, BT.1700 625 PAL, BT.1700 625 SECAM, IEC 61966-2-4 601
Audio
ID : 2
Format : MPEG Audio
Format version : Version 1
Format profile : Layer 3
Mode : Joint stereo
Codec ID : A_MPEG/L3
Codec ID/Hint : MP3
Duration : 1h 7mn
Bit rate mode : Constant
Bit rate : 256 Kbps
Channel(s) : 2 channels
Sampling rate : 48.0 KHz
Bit depth : 16 bits
Stream size : 123 MiB (7%)

Скриншоты




Показать сообщения:    

Текущее время: 05-Дек 01:23

Часовой пояс: UTC + 3


Вы не можете начинать темы
Вы не можете отвечать на сообщения
Вы не можете редактировать свои сообщения
Вы не можете удалять свои сообщения
Вы не можете голосовать в опросах
Вы не можете прикреплять файлы к сообщениям
Вы не можете скачивать файлы