Лео Делиб - Коппелия (Маги Марен, Кент Нагано) / Leo Delibes - Coppelia (Maguy Marin, Kent Nagano) [1994, Modern dance, performance, HDTVRip]


 

[Цитировать]

Коппелия / Coppelia
Год выпуска: 1994
Лейбл: Unitel classica
Страна-производитель: Франция, Великобритания, Германия
Жанр: Modern dance, performance
Продолжительность: 01:00:53
Музыка: Лео Делиб / Leo Delibes
Дирижер: Кент Нагано / Kent Nagano
Исполнители музыки: Orchester der Opеra National de Lyon
Режиссер/Хореограф: Маги Марен / Maguy Marin
Исполнители:
Franсoise Joullie (Swanilda),
Josu Zabala (Franz),
Maria Brown (Coppelia),
Nerses Boyadjian (Coppelius),
Corps de ballet der Opera National de Lyon
Режиссер ТВ: Томас Гримм / Thomas Grimm
Доп. информация: Рип alex7, за что ему огромное спасибо
семпл http://multi-up.com/897517
Качество видео: HDTVRip
Формат/Контейнер: MKV
Видео кодек: H.264
Аудио кодек: MP3
Видео поток: MPEG4 Video (H264) 1280x720 25.00fps
Аудио поток: Dolby AC3 48000Hz stereo 384 Kbps

Mediainfo

Format : Matroska
File size : 1.65 GiB
Duration : 1h 0mn
Overall bit rate : 3 886 Kbps
Encoded date : UTC 2013-08-26 13:38:03
Writing application : mkvmerge v2.4.2 ('Oh My God') built on Jan 18 2009 17:30:28
Writing library : libebml v0.7.7 + libmatroska v0.8.1
Video
ID : 1
Format : AVC
Format/Info : Advanced Video Codec
Format profile : Baseline@L3.1
Format settings, CABAC : No
Format settings, ReFrames : 2 frames
Format settings, GOP : M=1, N=32
Muxing mode : Container profile=Unknown@3.1
Codec ID : V_MPEG4/ISO/AVC
Duration : 1h 0mn
Bit rate : 3 425 Kbps
Width : 1 280 pixels
Height : 720 pixels
Display aspect ratio : 16:9
Frame rate : 25.000 fps
Standard : PAL
Color space : YUV
Chroma subsampling : 4:2:0
Bit depth : 8 bits
Scan type : Progressive
Bits/(Pixel*Frame) : 0.149
Stream size : 1.46 GiB (88%)
Color primaries : BT.470-6 System B, BT.470-6 System G, BT.601-6 625, BT.1358 625, BT.1700 625 PAL, BT.1700 625 SECAM
Transfer characteristics : BT.470-6 System B, BT.470-6 System G
Matrix coefficients : BT.470-6 System B, BT.470-6 System G, BT.601-6 625, BT.1358 625, BT.1700 625 PAL, BT.1700 625 SECAM, IEC 61966-2-4 601
Audio
ID : 2
Format : AC-3
Format/Info : Audio Coding 3
Mode extension : CM (complete main)
Codec ID : A_AC3
Duration : 1h 0mn
Bit rate mode : Constant
Bit rate : 384 Kbps
Channel(s) : 2 channels
Channel positions : Front: L R
Sampling rate : 48.0 KHz
Bit depth : 16 bits
Stream size : 167 MiB (10%)

Скриншоты




Показать сообщения:    

Текущее время: 18-Янв 02:33

Часовой пояс: UTC + 3


Вы не можете начинать темы
Вы не можете отвечать на сообщения
Вы не можете редактировать свои сообщения
Вы не можете удалять свои сообщения
Вы не можете голосовать в опросах
Вы не можете прикреплять файлы к сообщениям
Вы не можете скачивать файлы