Амон Тобин - Полнолуние (Пина Бауш, Вим Вендерс) / Amon Tobin - Vollmond (Pina Bausch, Wim Wenders, Tanztheater Wuppertal Pina Bausch Rainer Behr) [2011, Modern ballet, HDTVRip]


 

[Цитировать]

Полнолуние / Vollmond
Год выпуска: 2011
Лейбл: Arte / Zdf
Страна-производитель: Германия
Жанр: Modern ballet
Продолжительность: 01:55:57
Музыка: Амон Тобин / Amon Tobin
Сценография: Петер Пабст / Peter Pabst
Режиссер ТВ: Вим Вендерс / Wim Wenders
Режиссер/Хореограф: Пина Бауш / Pina Bausch
Исполнители:
Театр танца Вупперталя Пины Бауш / Tanztheater Wuppertal Pina Bausch
Rainer Behr,
Pablo Aran Gimeno,
Silvia Farias Heredia,
Ditta Miranda Jasjfi,
Dominique Mercy,
Nazareth Panadero,
Helena Pikon,
Jorge Puera Armenta,
Azusa Seyama,
Julie Anne Stanzak,
Michael Strecker,
Fernando Suels Mendoza
Описание:
Спектакль «Полнолуние» (Vollmond) – один из самых эффектных в театральной истории водных аттракционов. Соратник Пины, художник Петер Пабст, умел приспособить под сцену любой природный ландшафт – хоть море. Вендерс прибавил ко всему этому мастерский монтаж.
Доп. информация: Рип и описание alex7 за что ему от всех огромное спасибо
семпл http://multi-up.com/880102
Качество видео: HDTVRip
Формат/Контейнер: MKV
Видео кодек: H.264
Аудио кодек: AC3
Видео поток: MPEG4 Video (H264) 1280x720 25.00fps
Аудио поток: Dolby AC3 48000Hz 6ch 448 Kbps

Mediainfo

Format : Matroska
File size : 3.23 GiB
Duration : 1h 55mn
Overall bit rate : 3 990 Kbps
Writing application : Lavf51.12.1
Writing library : Lavf51.12.1
Video
ID : 1
Format : AVC
Format/Info : Advanced Video Codec
Format profile : Baseline@L3.1
Format settings, CABAC : No
Format settings, ReFrames : 2 frames
Format settings, GOP : M=1, N=32
Muxing mode : Container profile=Unknown@3.1
Codec ID : V_MPEG4/ISO/AVC
Duration : 1h 55mn
Bit rate : 3 462 Kbps
Width : 1 280 pixels
Height : 720 pixels
Display aspect ratio : 16:9
Frame rate : 25.000 fps
Standard : PAL
Color space : YUV
Chroma subsampling : 4:2:0
Bit depth : 8 bits
Scan type : Progressive
Bits/(Pixel*Frame) : 0.150
Stream size : 2.80 GiB (87%)
Color primaries : BT.470-6 System B, BT.470-6 System G, BT.601-6 625, BT.1358 625, BT.1700 625 PAL, BT.1700 625 SECAM
Transfer characteristics : BT.470-6 System B, BT.470-6 System G
Matrix coefficients : BT.470-6 System B, BT.470-6 System G, BT.601-6 625, BT.1358 625, BT.1700 625 PAL, BT.1700 625 SECAM, IEC 61966-2-4 601
Audio
ID : 2
Format : AC-3
Format/Info : Audio Coding 3
Mode extension : CM (complete main)
Codec ID : A_AC3
Duration : 1h 55mn
Bit rate mode : Constant
Bit rate : 448 Kbps
Channel(s) : 6 channels
Channel positions : Front: L C R, Side: L R, LFE
Sampling rate : 48.0 KHz
Bit depth : 16 bits
Stream size : 372 MiB (11%)

Скриншоты




Показать сообщения:    

Текущее время: 11-Дек 09:12

Часовой пояс: UTC + 3


Вы не можете начинать темы
Вы не можете отвечать на сообщения
Вы не можете редактировать свои сообщения
Вы не можете удалять свои сообщения
Вы не можете голосовать в опросах
Вы не можете прикреплять файлы к сообщениям
Вы не можете скачивать файлы