П.И. Чайковский - Лебединое озеро / Tchaikovsky - Swan Lake (Graeme Murphy / Грэм Мерфи, Австралийский балет / Australian Ballet) [2010, Ballet, SATRip]


 

[Цитировать]

П.И. Чайковский - Лебединое озеро / Tchaikovsky - Swan Lake
Год выпуска: 2010
Лейбл: ABC Classics
Страна-производитель: Австралия
Жанр: Ballet
Продолжительность: 02:10:59
Режиссер / Хореограф: Graeme Murphy / Грэм Мерфи
Дирижер: Nicolette Fraillon / Николетта Фрейллон
Исполнители:
Мадлен Исти (Одетта) / Madeleine Eastoe (Odette),
Роберт Керрен (Принц Зигфрид) / Robert Curran (Prince Siegfried),
Даниэль Роу (Барнесса фон Ротбарт) / Danielle Rowe (Baroness von Rothbart)
Австралийский балет/ Australian Ballet
Австралийский оркестр оперы и балета/ Australian Opera and Ballet Orchestra
Описание:
Новое прочтение бессмертного "Лебединого озера" от Грема Мерфи, отсылающее к любовному треугольнику с участием определенных представителей британской монархии. Злой волшебник Ротбарт становится элегантной, но не менее злой Баронессой, которая не собирается отпускать своего только что женившегося любовника. Невинная Одетта оказывается в сумасшедшем доме, где ее сломленным разумом овладевают лебеди. Но она еще вернется к своему принцу...
Синопсис:
Вечером, накануне своей свадьбы, Одетта бродила по дворцу, и увидела то, что заставило ее усомниться в любви своего суженного, Принца Зигфрида. После свадьбы, столь любящая своего мужа, Одетта поняла, что его сердце принадлежит некой Баронессе. Ранимая Одетта была так потрясена, что королевским указом ее поместили в лечебницу. Сломленный дух Одетты может найти прибежище только в фантазиях, где девушки-лебеди, похожие на нее саму, утешат ее воспаленный разум, и где в скором времени покажется, что Зигфрид любит лишь ее одну.
Через несколько месяцев, когда заканчивается заточение Одетты в белых стенах лечебницы, она направляется к своему мужу, который находится ныне под властью Баронессы. Она появляется без приглашения на вечеринке у Баронессы и своей чистой красотой и невинностью заставляет Зигфрида снова влюбиться в нее без памяти. Ревнивая Баронесса пытается вновь запереть Одетту в лечебнице, но та, прежде чем ее успевают схватить, исчезает в ночи.
Зигфрид находит потрясенную Одетту на берегу озера, и, ненадолго, влюбленные объединяются в страстных объятьях. Но, даже находясь в руках своего мужа, Одетта понимает, что она не нашла успокоения своему больному разуму, и что облегчение ждет ее лишь в темных глубинах лебединого озера. До конца своих дней Принц Зигфрид больше никого не любил, а лишь скорбел о своей потерянной Одетте.
Художник-постановщик - Кристиан Фредриксон.
Художественный руководитель труппы Австралийского Балета - Дэвид Макаллистер.
Музыка - П.И. Чайковский.
Источник: собственный рип
Доп. информация: Релиз -

Спасибо за помощь в создании релиза
: Ya-san

Рип чистый. Без посторонних надписей. Выкладывается как есть. - Здесь качество MPG - Размер: 5,6 GB
Качество: SATRip
Формат: AVI
Видео кодек: XVID
Аудио кодек: MP3
Видео: 720x400 (16:9) 25.00fps 2 100 Kbps, 0.291 bit/pixel
Аудио: MPEG Audio, 48000Hz, 2 channels, 192 Кбит/сек

Скриншоты


Скринлист

MI

GeneralComplete name : D:\Выкладка\Лебединое озеро. Австралийский балет (2010, Балет, SATRip) (MYDIMKA).aviFormat : AVIFormat/Info : Audio Video InterleaveFormat profile : OpenDMLFile size : 2.10 GiBDuration : 2h 10mnOverall bit rate : 2 299 KbpsWriting application : VirtualDubMod 1.5.10.3 | www.virtualdub-fr.org || (build 2550/release)Writing library : VirtualDubMod build 2550/release
VideoID : 0Format : MPEG-4 VisualFormat profile : Advanced Simple@L5Format settings, BVOP : 1Format settings, QPel : NoFormat settings, GMC : No warppointsFormat settings, Matrix : Default (MPEG)Codec ID : XVIDCodec ID/Hint : XviDDuration : 2h 10mnBit rate : 2 094 KbpsWidth : 720 pixelsHeight : 400 pixelsDisplay aspect ratio : 16:9Frame rate : 25.000 fpsColor space : YUVChroma subsampling : 4:2:0Bit depth : 8 bitsScan type : ProgressiveCompression mode : LossyBits/(Pixel*Frame) : 0.291Stream size : 1.92 GiB (91%)Writing library : XviD 1.2.1 (UTC 2008-12-04)
AudioID : 1Format : MPEG AudioFormat version : Version 1Format profile : Layer 3Codec ID : 55Codec ID/Hint : MP3Duration : 2h 10mnBit rate mode : ConstantBit rate : 192 KbpsChannel(s) : 2 channelsSampling rate : 48.0 KHzCompression mode : LossyStream size : 180 MiB (8%)Alignment : Aligned on interleavesInterleave, duration : 40 ms (1.00 video frame)Interleave, preload duration : 504 msWriting library : LAME3.99rEncoding settings : -m s -V 4 -q 2 -lowpass 18.6 -b 192



Показать сообщения:    

Текущее время: 09-Дек 22:28

Часовой пояс: UTC + 3


Вы не можете начинать темы
Вы не можете отвечать на сообщения
Вы не можете редактировать свои сообщения
Вы не можете удалять свои сообщения
Вы не можете голосовать в опросах
Вы не можете прикреплять файлы к сообщениям
Вы не можете скачивать файлы