П.И. Чайковский - Лебединое озеро / Tchaikovsky - Swan Lake (Graeme Murphy / Грэм Мерфи, Австралийский балет / Australian Ballet) [2010, Ballet, DVB]


 

[Цитировать]

П.И. Чайковский - Лебединое озеро / Tchaikovsky - Swan Lake
Год выпуска: 2010
Лейбл: ABC Classics
Страна-производитель: Австралия
Жанр: Ballet
Продолжительность: 02:10:59
Режиссер / Хореограф: Graeme Murphy / Грэм Мерфи
Дирижер: Nicolette Fraillon / Николетта Фрейллон
Исполнители:
Мадлен Исти (Одетта) / Madeleine Eastoe (Odette),
Роберт Керрен (Принц Зигфрид) / Robert Curran (Prince Siegfried),
Даниэль Роу (Барнесса фон Ротбарт) / Danielle Rowe (Baroness von Rothbart)
Австралийский балет/ Australian Ballet
Австралийский оркестр оперы и балета/ Australian Opera and Ballet Orchestra
Описание:
Новое прочтение бессмертного "Лебединого озера" от Грема Мерфи, отсылающее к любовному треугольнику с участием определенных представителей британской монархии. Злой волшебник Ротбарт становится элегантной, но не менее злой Баронессой, которая не собирается отпускать своего только что женившегося любовника. Невинная Одетта оказывается в сумасшедшем доме, где ее сломленным разумом овладевают лебеди. Но она еще вернется к своему принцу...
Синопсис:
Вечером, накануне своей свадьбы, Одетта бродила по дворцу, и увидела то, что заставило ее усомниться в любви своего суженного, Принца Зигфрида. После свадьбы, столь любящая своего мужа, Одетта поняла, что его сердце принадлежит некой Баронессе. Ранимая Одетта была так потрясена, что королевским указом ее поместили в лечебницу. Сломленный дух Одетты может найти прибежище только в фантазиях, где девушки-лебеди, похожие на нее саму, утешат ее воспаленный разум, и где в скором времени покажется, что Зигфрид любит лишь ее одну.
Через несколько месяцев, когда заканчивается заточение Одетты в белых стенах лечебницы, она направляется к своему мужу, который находится ныне под властью Баронессы. Она появляется без приглашения на вечеринке у Баронессы и своей чистой красотой и невинностью заставляет Зигфрида снова влюбиться в нее без памяти. Ревнивая Баронесса пытается вновь запереть Одетту в лечебнице, но та, прежде чем ее успевают схватить, исчезает в ночи.
Зигфрид находит потрясенную Одетту на берегу озера, и, ненадолго, влюбленные объединяются в страстных объятьях. Но, даже находясь в руках своего мужа, Одетта понимает, что она не нашла успокоения своему больному разуму, и что облегчение ждет ее лишь в темных глубинах лебединого озера. До конца своих дней Принц Зигфрид больше никого не любил, а лишь скорбел о своей потерянной Одетте.
Художник-постановщик - Кристиан Фредриксон.
Художественный руководитель труппы Австралийского Балета - Дэвид Макаллистер.
Музыка - П.И. Чайковский.
Источник: собственный рип
Доп. информация: Релиз -
Спасибо за помощь в создании релиза: Ya-san

Рип чистый. Без посторонних надписей. Выкладывается как есть. Здесь качество SATRip - Размер: 2,1 GB
Качество: DVB
Формат: MPG
Видео кодек: MPG2
Аудио кодек: MP2
Видео: 720x576 @ 768x576 (4:3) 25.00fps 5 805 Kbps, 0.560 bit/pixel
Аудио: MPEG Audio, 48000Hz, 2 channels, 192 Кбит/сек

Скриншоты


Скринлист

MI

GeneralComplete name : D:\Выкладка\Лебединое озеро. Австралийский балет (2010, Балет, DVB) (MYDIMKA).mpgFormat : MPEG-PSFile size : 5.60 GiBDuration : 2h 10mnOverall bit rate mode : VariableOverall bit rate : 6 118 Kbps
VideoID : 224 (0xE0)Format : MPEG VideoFormat version : Version 2Format profile : Main@MainFormat settings, BVOP : YesFormat settings, Matrix : CustomFormat settings, GOP : M=3, N=36Duration : 2h 10mnBit rate mode : VariableBit rate : 5 804 KbpsMaximum bit rate : 15.0 MbpsWidth : 720 pixelsHeight : 576 pixelsDisplay aspect ratio : 4:3Frame rate : 25.000 fpsStandard : PALColor space : YUVChroma subsampling : 4:2:0Bit depth : 8 bitsScan type : InterlacedScan order : Top Field FirstCompression mode : LossyBits/(Pixel*Frame) : 0.560Time code of first frame : 00:00:00:00Time code source : Group of pictures headerStream size : 5.31 GiB (95%)
AudioID : 192 (0xC0)Format : MPEG AudioFormat version : Version 1Format profile : Layer 2Duration : 2h 10mnBit rate mode : ConstantBit rate : 192 KbpsChannel(s) : 2 channelsSampling rate : 48.0 KHzCompression mode : LossyDelay relative to video : 8msStream size : 180 MiB (3%)



Показать сообщения:    

Текущее время: 05-Дек 13:33

Часовой пояс: UTC + 3


Вы не можете начинать темы
Вы не можете отвечать на сообщения
Вы не можете редактировать свои сообщения
Вы не можете удалять свои сообщения
Вы не можете голосовать в опросах
Вы не можете прикреплять файлы к сообщениям
Вы не можете скачивать файлы