Сергей Прокофьев - Ромео и Джульетта (ГАБТ) (Анна Никулина, Александр Волчков) [Юрий Григорович] / Sergey Prokofiev - Romeo and Juliet (Bolshoi) (Anna Nikulina, Aleksandr Volchkov) [Yuri Grigorovich] [12.05.2013, Classic ballet, WEBRip]


 

[Цитировать]

Ромео и Джульетта
Год выпуска: 12.05.2013
Лейбл: Bolshoi Theatre
Страна-производитель: Россия
Жанр: Classic ballet
Продолжительность: 2:48:51
Режиссер/Хореограф: Юрий Григорович
Исполнители: Синьор Капулетти - Виталий Биктимиров
Синьор Монтекки - Алексей Лопаревич
Джульетта, дочь Капулетти - Анна Никулина
Ромео, сын Монтекки - Александр Волчков
Синьора Капулетти - Кристина Карасева
Тибальд, племянник синьоры Капулетти - Михаил Лобухин
Меркуцио, друг Ромео - Андрей Болотин
Герцог Вероны - Андрей Ситников
Граф Парис - Владислав Лантратов
Падре Лоренцо - Алексей Лопаревич
Кормилица Джульетты - Анна Антропова
Оркестр и балет ГАБТ
Треклист: Балет в двух действиях
Описание: Либретто по одноименной трагедии Уильяма Шекспира. Сергея Прокофьева, Сергея Радлова, Адриана Пиотровского в редакции Юрия Григоровича
Доп. информация: Запись трансляции с Youtube
Качество видео: WEBRip
Формат/Контейнер: MPEG4
Видео кодек: H.264
Аудио кодек: AAC
Видео поток: MPEG4 Video (AVC) 1280x720 25.00fps
Аудио поток: AAC 192 Kbps 44.1 KHz 2 channels
Сэмпл: http://sendfile.su/810881

Скриншоты



MediaInfo

General
Complete name : E:\Фильмы\Ромео и Джульетта LIVE_(720p).mp4
Format : MPEG-4
Format profile : Base Media / Version 2
Codec ID : mp42
File size : 2.16 GiB
Duration : 2h 48mn
Overall bit rate mode : Variable
Overall bit rate : 1 827 Kbps
Encoded date : UTC 2013-05-11 17:56:59
Tagged date : UTC 2013-05-11 17:56:59
gsst : 0
gstd : 10131655
gssd : B4A7D6E48HH1368383298636806
gshh : r8---sn-n8v7sn7e.c.youtube.com
Video
ID : 1
Format : AVC
Format/Info : Advanced Video Codec
Format profile : High@L3.1
Format settings, CABAC : Yes
Format settings, ReFrames : 1 frame
Format settings, GOP : M=1, N=60
Codec ID : avc1
Codec ID/Info : Advanced Video Coding
Duration : 2h 48mn
Bit rate : 1 633 Kbps
Maximum bit rate : 7 539 Kbps
Width : 1 280 pixels
Height : 720 pixels
Display aspect ratio : 16:9
Frame rate mode : Constant
Frame rate : 25.000 fps
Color space : YUV
Chroma subsampling : 4:2:0
Bit depth : 8 bits
Scan type : Progressive
Bits/(Pixel*Frame) : 0.071
Stream size : 1.93 GiB (89%)
Tagged date : UTC 2013-05-11 18:09:10
Audio
ID : 2
Format : AAC
Format/Info : Advanced Audio Codec
Format profile : LC
Codec ID : 40
Duration : 2h 48mn
Bit rate mode : Variable
Bit rate : 192 Kbps
Maximum bit rate : 201 Kbps
Channel(s) : 2 channels
Channel positions : Front: L R
Sampling rate : 44.1 KHz
Compression mode : Lossy
Stream size : 232 MiB (11%)
Title : IsoMedia File Produced by Google, 5-11-2011
Encoded date : UTC 2013-05-11 18:05:32
Tagged date : UTC 2013-05-11 18:09:10



Показать сообщения:    

Текущее время: 04-Дек 09:09

Часовой пояс: UTC + 3


Вы не можете начинать темы
Вы не можете отвечать на сообщения
Вы не можете редактировать свои сообщения
Вы не можете удалять свои сообщения
Вы не можете голосовать в опросах
Вы не можете прикреплять файлы к сообщениям
Вы не можете скачивать файлы