Густав Малер - Третья симфония Густава Малера ( Джон Ноймайер) / Gustav Mahler - La Troisieme Symphonie De Gustav Mahler / Third symphony by G Mahler (John Neumeier, Simon Hewett) [18.04.2013, Modern ballet, HDTVRip]


 

[Цитировать]

Третья симфония Густава Малера / La Troisieme Symphonie De Gustav Mahler
Год выпуска: 18.04.2013
Лейбл: Opera de Paris
Страна-производитель: Франция
Жанр: Modern ballet
Продолжительность: 02:11:49
Язык: Французский
Музыка: Густав Малер / Gustav Mahler
Дирижер: Simon Hewett
Исполнители музыки: Paris Opera Orchestra and Chorus
Хормейстер: Alessandro Di Stefano
Paris Opera Children's chorus
Contralto: Aline Martin
Режиссер/Хореограф: Джон Ноймайер / John Neumeier
Исполнители: Karl Paquette, Isabelle Ciaravola, Eleonora Abbagnato, Mathias Heymann, Stephane Bullion, Florian Magnenet, Laura Hecquet, Nolwen Daniel, Cristophe Duquenne, Melanie Hurel, Alessio Carbone
and Corps de Ballet l`Opera national de Paris
Треклист:
I. Yesterday
II. Summer
III. Autumn
IV. Night
V. Angel
VI. What love tells me
Описание:
John Neumeier lets himself be carried by the emotions inspired in him by the monumental work of the Viennese composer. A perfect osmosis between music and dance, the ballet is shot through with a palette of emotions, sculpting images of powerful lyricism that reveal the wealth of the choreographer’s inspiration.
Доп. информация: Запись трансляции осуществлена Mauricelugher, за что ему, уже в который раз, от всех огромное спасибо.
семпл http://multi-up.com/856687
Качество видео: HDTVRip
Формат/Контейнер: MKV
Видео кодек: H.264
Аудио кодек: AC3
Видео поток: MPEG4 Video (H264) 1920x1080 25.00fps
Аудио поток: Dolby AC3 48000Hz 6ch

Mediainfo

Format : Matroska
File size : 6.20 GiB
Duration : 2h 11mn
Overall bit rate : 6 732 Kbps
Movie name : Third symphony by G Mahler MME
Encoded date : UTC 2013-04-19 05:55:20
Writing application : mkvmerge v5.5.0 ('Healer') built on Apr 6 2012 21:43:24
Writing library : libebml v1.2.3 + libmatroska v1.3.0
Video
ID : 1
Format : AVC
Format/Info : Advanced Video Codec
Format profile : High@L5.0
Format settings, CABAC : Yes
Format settings, ReFrames : 3 frames
Muxing mode : Container profile=Unknown@5.0
Codec ID : V_MPEG4/ISO/AVC
Duration : 2h 11mn
Bit rate : 6 150 Kbps
Width : 1 920 pixels
Height : 1 080 pixels
Display aspect ratio : 16:9
Frame rate : 25.000 fps
Color space : YUV
Chroma subsampling : 4:2:0
Bit depth : 8 bits
Scan type : Progressive
Bits/(Pixel*Frame) : 0.119
Stream size : 5.66 GiB (91%)
Writing library : x264 core 124 r2197 69a0443
Encoding settings : cabac=1 / ref=3 / deblock=1:0:0 / analyse=0x3:0x113 / me=hex / subme=7 / psy=1 / psy_rd=1.00:0.00 / mixed_ref=1 / me_range=16 / chroma_me=1 / trellis=1 / 8x8dct=1 / cqm=0 / deadzone=21,11 / fast_pskip=1 / chroma_qp_offset=-2 / threads=6 / sliced_threads=0 / nr=0 / decimate=1 / interlaced=0 / bluray_compat=0 / constrained_intra=0 / bframes=3 / b_pyramid=0 / b_adapt=1 / b_bias=0 / direct=1 / weightb=1 / open_gop=0 / weightp=2 / keyint=250 / keyint_min=25 / scenecut=40 / intra_refresh=0 / rc_lookahead=40 / rc=crf / mbtree=1 / crf=20.0 / qcomp=0.60 / qpmin=0 / qpmax=69 / qpstep=4 / vbv_maxrate=168750 / vbv_bufsize=168750 / crf_max=0.0 / nal_hrd=vbr / ip_ratio=1.40 / aq=1:1.00
Audio
ID : 2
Format : AC-3
Format/Info : Audio Coding 3
Mode extension : CM (complete main)
Codec ID : A_AC3
Duration : 2h 11mn
Bit rate mode : Constant
Bit rate : 448 Kbps
Channel(s) : 6 channels
Channel positions : Front: L C R, Side: L R, LFE
Sampling rate : 48.0 KHz
Bit depth : 16 bits
Video delay : 14ms
Stream size : 422 MiB (7%)
Language : French

Скриншоты




Показать сообщения:    

Текущее время: 05-Дек 01:16

Часовой пояс: UTC + 3


Вы не можете начинать темы
Вы не можете отвечать на сообщения
Вы не можете редактировать свои сообщения
Вы не можете удалять свои сообщения
Вы не можете голосовать в опросах
Вы не можете прикреплять файлы к сообщениям
Вы не можете скачивать файлы