Карл Орф - Кармина Бурана (Маурицио Вайнрот) / Carl Orff - Carmina Burana (Mauricio Wainrot, Pieter-Jelle de Boer) [2011, Modern ballet, Mezzo, HDTVRip]


 

[Цитировать]

Кармина Бурана / Carmina Burana
Год выпуска: 2011
Лейбл: Oxymore, Opera National de Bordeaux
Страна-производитель: Франция
Жанр: Modern ballet
Продолжительность: 00:56:48
Музыка: Карл Орф / Carl Orff
Дирижер: Pieter-Jelle de Boer
Исполнители музыки: Национальный оркестр Аквитании / Orchestre National Bordeaux Aquitaine
Хормейстер: Marie-Christine Darracq
Хор Национальной оперы Бордо / Choeur de l'Opera National de Bordeaux
Детский хор консерватории Бордо Жака Тибо / Choeur d'enfants du Conservatoire de Bordeaux Jacques Thibaud
Режиссер/Хореограф: Маурицио Вайнрот / Mauricio Wainrot
Исполнители артисты балета Национальной оперы в Бордо:
Etoiles
Emmanuelle Grizot, Oksana Kucheruk, Igor Yebra
Solistes
Yumi Aizawa, Vladimir Ippolitov, Juliane Bubl, Roman Mikhalev, Vanessa Feuillatte, Stephanie Roublot
Corps de Ballet
Aline Bellardi, Darelia Bolivar, Genevieve Cauwel, Emilie Cerruti, Louise Djabri, Lucy Emery, Viviana Franciosi, Dorothee Gibon, Stephanie Gravouille, Marina Guizien, Corinne Lanssens, Laure Lavisse, Diane Le Floc'h, Camille Lebesgue, Suzanne Limbrunner, Marie-Lys Navarro, Giada Rossi, Mika Yoneyama, Felice Barra, Kase Craig, Guillaume Debut, Ludovic Dussarps, Davit Gevorgyan, Vladimir Korec, Istvan Martin, Alvaro Rodriguez, Guido Sarno, Frederic Vinclair, Marc-Emmanuel Zanoli
Режиссер ТВ: Luc de Tienda
Декорации и костюмы: Карлос Галлардо / Carlos Gallardo
Описание: Запись от 28 октября 2011 года в Opera National de Bordeaux
Доп. информация:
Рип трансляции выполнен alex7, за что ему от всех огромное спасибо.
Качество видео: HDTVRip
Формат/Контейнер: MKV
Видео кодек: H.264
Аудио кодек: MP3
Видео поток: MPEG4 Video (H264) 1280x720 25.00fps
Аудио поток: MP3 48000Hz stereo 256kbps
семпл http://multi-up.com/854521

Mediainfo

Format : Matroska
File size : 2.47 GiB
Duration : 56mn 48s
Overall bit rate : 6 229 Kbps
Writing application : Lavf51.12.1
Writing library : Lavf51.12.1
Video
ID : 1
Format : AVC
Format/Info : Advanced Video Codec
Format profile : Baseline@L1.3
Format settings, CABAC : No
Format settings, ReFrames : 1 frame
Muxing mode : Container profile=Unknown@1.3
Codec ID : V_MPEG4/ISO/AVC
Duration : 56mn 48s
Bit rate : 5 849 Kbps
Width : 1 280 pixels
Height : 720 pixels
Display aspect ratio : 16:9
Frame rate : 25.000 fps
Color space : YUV
Chroma subsampling : 4:2:0
Bit depth : 8 bits
Scan type : Progressive
Bits/(Pixel*Frame) : 0.254
Stream size : 2.32 GiB (94%)
Audio
ID : 2
Format : MPEG Audio
Format version : Version 1
Format profile : Layer 3
Mode : Joint stereo
Codec ID : A_MPEG/L3
Codec ID/Hint : MP3
Duration : 56mn 48s
Bit rate mode : Constant
Bit rate : 256 Kbps
Channel(s) : 2 channels
Sampling rate : 48.0 KHz
Bit depth : 16 bits
Stream size : 104 MiB (4%)
Writing library : LAME3.97ЄЄЄЄЄЄЄЄЄЄЄЄ
Language : English

Скриншоты




Показать сообщения:    

Текущее время: 04-Дек 21:23

Часовой пояс: UTC + 3


Вы не можете начинать темы
Вы не можете отвечать на сообщения
Вы не можете редактировать свои сообщения
Вы не можете удалять свои сообщения
Вы не можете голосовать в опросах
Вы не можете прикреплять файлы к сообщениям
Вы не можете скачивать файлы