Театр танца Вадима Елизарова - Пигмалион (Вадим Елизаров)[2005, Хореаграфический спектакль, DVD5]


 

[Цитировать]

Пигмалион
Год выпуска: 2005
Страна-производитель: Украина - Видео Мастер.
Жанр: Хореаграфический спектакль
Продолжительность: 01:17:27
Режиссер/Хореограф: Вадим Елизаров
Исполнители:
Элиза Дулитл - Наталья Елизарова
Мистер Хиггинс - Александр Елизаров
Мистер Пикеринг - Роман Куцкий
ассистент Мистера Пикеринга - Наталья Иванова
подруга Элизы - Энн - Анна Данильченко
Лидер группы - Волоха - Сергей Волшин
Лидер группы - Соловей - Денис Соловьев
Ди-джей - Дмитрий Цепков
воспитанники школы танцев, группа Волохи и группа Соловья
Описание:
Два джентльмена - Мистер Хиггинс и Мистер Пикеринг - заключают пари: сможет ли прославленный учитель бального танца из девушки, исповедующей культуру рэпа и хип-хопа, сделать настоящую благородную и изысканную леди?
По мотивам комедии Б.Шоу.
Доп. информация:
Режиссер-постановщик - Вадим Елизаров
Либретто - Елена Ольховская
Звукорежиссер - Николай Рачинский
Ведущий - Максим Давыдов
Работе присуждена премия Верховного Совета Автономной Республики Крым.
Качество видео: DVD5
Формат/Контейнер: DVDVideo
Видео кодек: MPEG2
Аудио кодек: AC3
Видео поток: PAL, 4:3, (720x576), VBR, 7987.21 kbps avg
Аудио поток: Dolby AC3, 2 ch, 192 kbps, 48KHz, 16its

Скриншоты

MediaInfo

Общее
Полное имя : G:\Мои загрузки\Пигмалион\VIDEO_TS\VIDEO_TS.BUP
Формат : DVD Video
Профиль формата : Menu
Размер файла : 14,0 Кбайт
Режим общего битрейта : Переменный
Видео
Идентификатор : 224 (0xE0)
Формат : MPEG Video
Версия формата : Version 2
Вид битрейта : Переменный
Ширина : 720 пикселей
Высота : 576 пикселей
Соотношение сторон : 4:3
Частота кадров : 25,000 кадров/сек
Стандарт вещания : PAL
Метод сжатия : С потерями
Текст
Формат : RLE
Формат/Информация : Run-length encoding
Битовая глубина : 2 бит
Общее
Полное имя : G:\Мои загрузки\Пигмалион\VIDEO_TS\VIDEO_TS.IFO
Формат : DVD Video
Профиль формата : Menu
Размер файла : 14,0 Кбайт
Режим общего битрейта : Переменный
Видео
Идентификатор : 224 (0xE0)
Формат : MPEG Video
Версия формата : Version 2
Вид битрейта : Переменный
Ширина : 720 пикселей
Высота : 576 пикселей
Соотношение сторон : 4:3
Частота кадров : 25,000 кадров/сек
Стандарт вещания : PAL
Метод сжатия : С потерями
Текст
Формат : RLE
Формат/Информация : Run-length encoding
Битовая глубина : 2 бит
Общее
Полное имя : G:\Мои загрузки\Пигмалион\VIDEO_TS\VIDEO_TS.VOB
Формат : MPEG-PS
Размер файла : 22,0 Кбайт
Продолжительность : 40 мс.
Общий поток : 4506 Кбит/сек
Видео
Идентификатор : 224 (0xE0)
Формат : MPEG Video
Версия формата : Version 2
Профиль формата : Main@Main
Параметр BVOP формата : Нет
Параметр матрицы формата : Выборочная
Параметр GOP формата : N=1
Продолжительность : 40 мс.
Максимальный битрейт : 9000 Кбит/сек
Ширина : 720 пикселей
Высота : 576 пикселей
Соотношение сторон : 4:3
Частота кадров : 25,000 кадров/сек
Стандарт вещания : PAL
Цветовое пространство : YUV
Субдискретизация насыщенности : 4:2:0
Битовая глубина : 8 бит
Тип развёртки : Прогрессивная
Порядок развёртки : Верхнее поле первое
Метод сжатия : С потерями
Основные цвета : SMPTE 170M
Характеристики трансфера : SMPTE 170M
Коэффициенты матрицы : SMPTE 170M
Меню
Общее
Полное имя : G:\Мои загрузки\Пигмалион\VIDEO_TS\VTS_01_0.BUP
Формат : DVD Video
Профиль формата : Program
Размер файла : 36,0 Кбайт
Продолжительность : 1 ч. 17 м.
Режим общего битрейта : Переменный
Общий поток : 63 бит/сек
Видео
Идентификатор : 224 (0xE0)
Формат : MPEG Video
Версия формата : Version 2
Продолжительность : 1 ч. 17 м.
Вид битрейта : Переменный
Ширина : 720 пикселей
Высота : 576 пикселей
Соотношение сторон : 4:3
Частота кадров : 25,000 кадров/сек
Стандарт вещания : PAL
Метод сжатия : С потерями
Аудио
Идентификатор : 128 (0x80)
Формат : AC-3
Формат/Информация : Audio Coding 3
Продолжительность : 1 ч. 17 м.
Каналы : 2 канала
Частота : 48,0 КГц
Метод сжатия : С потерями
Язык : English
Меню
Продолжительность : 1 ч. 17 м.
00:00:00.000 : Chapter 1
00:01:05.920 : Chapter 2
00:18:49.920 : Chapter 3
00:21:25.320 : Chapter 4
00:23:20.760 : Chapter 5
00:26:39.280 : Chapter 6
00:30:46.360 : Chapter 7
00:31:45.360 : Chapter 8
00:35:06.360 : Chapter 9
00:38:35.480 : Chapter 10
00:39:12.960 : Chapter 11
00:41:27.960 : Chapter 12
00:43:35.320 : Chapter 13
00:45:49.080 : Chapter 14
00:49:08.520 : Chapter 15
00:51:10.880 : Chapter 16
00:59:39.920 : Chapter 17
01:01:45.120 : Chapter 18
01:03:44.920 : Chapter 19
01:06:20.720 : Chapter 20
01:08:10.440 : Chapter 21
01:13:00.920 : Chapter 22
List (Audio) : 0
Общее
Полное имя : G:\Мои загрузки\Пигмалион\VIDEO_TS\VTS_01_0.IFO
Формат : DVD Video
Профиль формата : Program
Размер файла : 36,0 Кбайт
Продолжительность : 1 ч. 17 м.
Режим общего битрейта : Переменный
Общий поток : 63 бит/сек
Видео
Идентификатор : 224 (0xE0)
Формат : MPEG Video
Версия формата : Version 2
Продолжительность : 1 ч. 17 м.
Вид битрейта : Переменный
Ширина : 720 пикселей
Высота : 576 пикселей
Соотношение сторон : 4:3
Частота кадров : 25,000 кадров/сек
Стандарт вещания : PAL
Метод сжатия : С потерями
Аудио
Идентификатор : 128 (0x80)
Формат : AC-3
Формат/Информация : Audio Coding 3
Продолжительность : 1 ч. 17 м.
Каналы : 2 канала
Частота : 48,0 КГц
Метод сжатия : С потерями
Язык : English
Меню
Продолжительность : 1 ч. 17 м.
00:00:00.000 : Chapter 1
00:01:05.920 : Chapter 2
00:18:49.920 : Chapter 3
00:21:25.320 : Chapter 4
00:23:20.760 : Chapter 5
00:26:39.280 : Chapter 6
00:30:46.360 : Chapter 7
00:31:45.360 : Chapter 8
00:35:06.360 : Chapter 9
00:38:35.480 : Chapter 10
00:39:12.960 : Chapter 11
00:41:27.960 : Chapter 12
00:43:35.320 : Chapter 13
00:45:49.080 : Chapter 14
00:49:08.520 : Chapter 15
00:51:10.880 : Chapter 16
00:59:39.920 : Chapter 17
01:01:45.120 : Chapter 18
01:03:44.920 : Chapter 19
01:06:20.720 : Chapter 20
01:08:10.440 : Chapter 21
01:13:00.920 : Chapter 22
List (Audio) : 0
Общее
Полное имя : G:\Мои загрузки\Пигмалион\VIDEO_TS\VTS_01_0.VOB
Формат : MPEG-PS
Размер файла : 7,56 Мбайт
Продолжительность : 4 м. 49 с.
Общий поток : 219 Кбит/сек
Видео
Идентификатор : 224 (0xE0)
Формат : MPEG Video
Версия формата : Version 2
Профиль формата : Main@Main
Параметр BVOP формата : Нет
Параметр матрицы формата : Выборочная
Параметр GOP формата : N=1
Продолжительность : 142 мс.
Битрейт : 22,9 Кбит/сек
Максимальный битрейт : 9000 Кбит/сек
Ширина : 720 пикселей
Высота : 576 пикселей
Соотношение сторон : 4:3
Частота кадров : 25,000 кадров/сек
Стандарт вещания : PAL
Цветовое пространство : YUV
Субдискретизация насыщенности : 4:2:0
Битовая глубина : 8 бит
Тип развёртки : Прогрессивная
Порядок развёртки : Верхнее поле первое
Метод сжатия : С потерями
Бит/(Пиксели*Кадры) : 0.002
Размер потока : 459 байт (0%)
Основные цвета : SMPTE 170M
Характеристики трансфера : SMPTE 170M
Коэффициенты матрицы : SMPTE 170M
Аудио
Идентификатор : 189 (0xBD)-128 (0x80)
Формат : AC-3
Формат/Информация : Audio Coding 3
Расширение режима : CM (complete main)
Параметр Endianness формата : Big
Режим смешивания : DVD-Video
Продолжительность : 4 м. 49 с.
Вид битрейта : Постоянный
Битрейт : 192 Кбит/сек
Каналы : 2 канала
Расположение каналов : Front: L R
Частота : 48,0 КГц
Битовая глубина : 16 бит
Метод сжатия : С потерями
Задержка видео : 102 мс.
Размер потока : 6,62 Мбайт (88%)
Текст
Идентификатор : 189 (0xBD)-32 (0x20)
Формат : RLE
Формат/Информация : Run-length encoding
Режим смешивания : DVD-Video
Задержка видео : 102 мс.
Меню
Общее
Полное имя : G:\Мои загрузки\Пигмалион\VIDEO_TS\VTS_01_1.VOB
Формат : MPEG-PS
Размер файла : 1024 Мбайт
Продолжительность : 17 м.
Общий поток : 7972 Кбит/сек
Видео
Идентификатор : 224 (0xE0)
Формат : MPEG Video
Версия формата : Version 2
Профиль формата : Main@Main
Параметр BVOP формата : Да
Параметр матрицы формата : По умолчанию
Продолжительность : 17 м.
Битрейт : 7664 Кбит/сек
Ширина : 720 пикселей
Высота : 576 пикселей
Соотношение сторон : 4:3
Частота кадров : 25,000 кадров/сек
Стандарт вещания : PAL
Цветовое пространство : YUV
Субдискретизация насыщенности : 4:2:0
Битовая глубина : 8 бит
Тип развёртки : Чересстрочная
Порядок развёртки : Нижнее поле первое
Метод сжатия : С потерями
Бит/(Пиксели*Кадры) : 0.739
Размер потока : 979 Мбайт (96%)
Аудио
Идентификатор : 189 (0xBD)-128 (0x80)
Формат : AC-3
Формат/Информация : Audio Coding 3
Расширение режима : CM (complete main)
Параметр Endianness формата : Big
Режим смешивания : DVD-Video
Продолжительность : 17 м.
Вид битрейта : Постоянный
Битрейт : 192 Кбит/сек
Каналы : 2 канала
Расположение каналов : Front: L R
Частота : 48,0 КГц
Битовая глубина : 16 бит
Метод сжатия : С потерями
Размер потока : 24,7 Мбайт (2%)
Меню
Общее
Полное имя : G:\Мои загрузки\Пигмалион\VIDEO_TS\VTS_01_2.VOB
Формат : MPEG-PS
Размер файла : 1024 Мбайт
Продолжительность : 17 м.
Общий поток : 7972 Кбит/сек
Видео
Идентификатор : 224 (0xE0)
Формат : MPEG Video
Версия формата : Version 2
Профиль формата : Main@Main
Параметр BVOP формата : Да
Параметр матрицы формата : По умолчанию
Параметр GOP формата : M=3, N=12
Продолжительность : 17 м.
Битрейт : 7664 Кбит/сек
Ширина : 720 пикселей
Высота : 576 пикселей
Соотношение сторон : 4:3
Частота кадров : 25,000 кадров/сек
Стандарт вещания : PAL
Цветовое пространство : YUV
Субдискретизация насыщенности : 4:2:0
Битовая глубина : 8 бит
Тип развёртки : Чересстрочная
Порядок развёртки : Нижнее поле первое
Метод сжатия : С потерями
Бит/(Пиксели*Кадры) : 0.739
Размер потока : 979 Мбайт (96%)
Аудио
Идентификатор : 189 (0xBD)-128 (0x80)
Формат : AC-3
Формат/Информация : Audio Coding 3
Расширение режима : CM (complete main)
Параметр Endianness формата : Big
Режим смешивания : DVD-Video
Продолжительность : 17 м.
Вид битрейта : Постоянный
Битрейт : 192 Кбит/сек
Каналы : 2 канала
Расположение каналов : Front: L R
Частота : 48,0 КГц
Битовая глубина : 16 бит
Метод сжатия : С потерями
Задержка видео : -208 мс.
Размер потока : 24,7 Мбайт (2%)
Меню
Общее
Полное имя : G:\Мои загрузки\Пигмалион\VIDEO_TS\VTS_01_3.VOB
Формат : MPEG-PS
Размер файла : 1024 Мбайт
Продолжительность : 17 м.
Общий поток : 7973 Кбит/сек
Видео
Идентификатор : 224 (0xE0)
Формат : MPEG Video
Версия формата : Version 2
Профиль формата : Main@Main
Параметр BVOP формата : Да
Параметр матрицы формата : По умолчанию
Продолжительность : 17 м.
Битрейт : 7664 Кбит/сек
Ширина : 720 пикселей
Высота : 576 пикселей
Соотношение сторон : 4:3
Частота кадров : 25,000 кадров/сек
Стандарт вещания : PAL
Цветовое пространство : YUV
Субдискретизация насыщенности : 4:2:0
Битовая глубина : 8 бит
Тип развёртки : Чересстрочная
Порядок развёртки : Нижнее поле первое
Метод сжатия : С потерями
Бит/(Пиксели*Кадры) : 0.739
Размер потока : 979 Мбайт (96%)
Аудио
Идентификатор : 189 (0xBD)-128 (0x80)
Формат : AC-3
Формат/Информация : Audio Coding 3
Расширение режима : CM (complete main)
Параметр Endianness формата : Big
Режим смешивания : DVD-Video
Продолжительность : 17 м.
Вид битрейта : Постоянный
Битрейт : 192 Кбит/сек
Каналы : 2 канала
Расположение каналов : Front: L R
Частота : 48,0 КГц
Битовая глубина : 16 бит
Метод сжатия : С потерями
Задержка видео : -176 мс.
Размер потока : 24,7 Мбайт (2%)
Меню
Общее
Полное имя : G:\Мои загрузки\Пигмалион\VIDEO_TS\VTS_01_4.VOB
Формат : MPEG-PS
Размер файла : 1024 Мбайт
Продолжительность : 17 м.
Общий поток : 7973 Кбит/сек
Видео
Идентификатор : 224 (0xE0)
Формат : MPEG Video
Версия формата : Version 2
Профиль формата : Main@Main
Параметр BVOP формата : Да
Параметр матрицы формата : По умолчанию
Параметр GOP формата : M=3, N=12
Продолжительность : 17 м.
Битрейт : 7664 Кбит/сек
Ширина : 720 пикселей
Высота : 576 пикселей
Соотношение сторон : 4:3
Частота кадров : 25,000 кадров/сек
Стандарт вещания : PAL
Цветовое пространство : YUV
Субдискретизация насыщенности : 4:2:0
Битовая глубина : 8 бит
Тип развёртки : Чересстрочная
Порядок развёртки : Нижнее поле первое
Метод сжатия : С потерями
Бит/(Пиксели*Кадры) : 0.739
Размер потока : 979 Мбайт (96%)
Аудио
Идентификатор : 189 (0xBD)-128 (0x80)
Формат : AC-3
Формат/Информация : Audio Coding 3
Расширение режима : CM (complete main)
Параметр Endianness формата : Big
Режим смешивания : DVD-Video
Продолжительность : 17 м.
Вид битрейта : Постоянный
Битрейт : 192 Кбит/сек
Каналы : 2 канала
Расположение каналов : Front: L R
Частота : 48,0 КГц
Битовая глубина : 16 бит
Метод сжатия : С потерями
Задержка видео : -544 мс.
Размер потока : 24,7 Мбайт (2%)
Меню
Общее
Полное имя : G:\Мои загрузки\Пигмалион\VIDEO_TS\VTS_01_5.VOB
Формат : MPEG-PS
Размер файла : 321 Мбайт
Продолжительность : 5 м. 37 с.
Общий поток : 7972 Кбит/сек
Видео
Идентификатор : 224 (0xE0)
Формат : MPEG Video
Версия формата : Version 2
Профиль формата : Main@Main
Параметр BVOP формата : Да
Параметр матрицы формата : По умолчанию
Параметр GOP формата : M=3, N=12
Продолжительность : 5 м. 37 с.
Битрейт : 7664 Кбит/сек
Ширина : 720 пикселей
Высота : 576 пикселей
Соотношение сторон : 4:3
Частота кадров : 25,000 кадров/сек
Стандарт вещания : PAL
Цветовое пространство : YUV
Субдискретизация насыщенности : 4:2:0
Битовая глубина : 8 бит
Тип развёртки : Чересстрочная
Порядок развёртки : Нижнее поле первое
Метод сжатия : С потерями
Бит/(Пиксели*Кадры) : 0.739
Размер потока : 307 Мбайт (95%)
Аудио
Идентификатор : 189 (0xBD)-128 (0x80)
Формат : AC-3
Формат/Информация : Audio Coding 3
Расширение режима : CM (complete main)
Параметр Endianness формата : Big
Режим смешивания : DVD-Video
Продолжительность : 5 м. 37 с.
Вид битрейта : Постоянный
Битрейт : 192 Кбит/сек
Каналы : 2 канала
Расположение каналов : Front: L R
Частота : 48,0 КГц
Битовая глубина : 16 бит
Метод сжатия : С потерями
Задержка видео : -384 мс.
Размер потока : 7,73 Мбайт (2%)
Меню

DVDInfo

Title: Пигмалион
Size: 4.32 Gb ( 4 530 882,00 KBytes ) - DVD-5
Enabled regions: 1, 2, 3, 4, 5, 6, 7, 8
VTS_01 :
Play Length: 01:17:27
Video: PAL 4:3 (720x576) VBR
Audio:
English (Dolby AC3, 2 ch)
* Menus Information *
VIDEO_TS Menu
Video:
PAL 4:3 (720x576) VBR
English Language Unit :
Title Menu
VTS_01 Menu
Video:
PAL 4:3 (720x576) VBR
Audio:
Not specified (Dolby AC3, 2 ch)
English Language Unit :
Root Menu



Показать сообщения:    

Текущее время: 08-Дек 07:08

Часовой пояс: UTC + 3


Вы не можете начинать темы
Вы не можете отвечать на сообщения
Вы не можете редактировать свои сообщения
Вы не можете удалять свои сообщения
Вы не можете голосовать в опросах
Вы не можете прикреплять файлы к сообщениям
Вы не можете скачивать файлы