Театр танца Вадима Елизарова - G.Bizet Р.Щедрин - Carmen / Ж.Бизе Р.Щедрин - Кармен (Вадим Елизаров) [2004, Хореографический спектакль DVD5 ]


 

[Цитировать]

Кармен
Страна - Производитель: Украина - "Видео Мастер"
Жанр: Хореографический спектакль
Тип раздаваемого материала: Танцевальное шоу
Продолжительность: 1:01:39
Год выпуска: 2005
Язык: Язык танца
Перевод: Не требуется-В ролях:
Кармен - Заслуженная артистка Украины Наталья Елизарова
Хозе - Заслуженный артист АРК Дмитрий Cильченко
Эскамильо - Заслуженный артист АРК Роман Куцкий
Трактирщик - Сергей Волошин
Полковник - Заслуженный артист АРК Александр Бондарчук
В массовых сценах - артисты Севастопольского театра танца-Описание: Севилья. На городской площади в оживлённой толпе мелькают драгуны, работницы табачной фабрики со своими возлюбленными. Появляется Кармен. Темпераментная и смелая, она привыкла властвовать над всеми.В оживлённой толпе Хозе замечает её - молодую красивую цыганку.В Севильи каждый мужчина отпускает какой нибудь комплимент по поводу её внешности.Встреча с драгуном Хозе пробуждает в ней страсть.Её хабанера - песня свободной любвии танец с трактирщиком звучат, как вызов Хозе, а цветок, брошеный к её ногам обещает любовь.
Хозе предаётся светлым мечтам.И снова Кармен нарушает спокойствие.На этот раз она оказывается виновницей ссоры на фабрике..Лежит убитая женщина. Кармен стоит рядом с ножом в руках. Табачницы указывают на Кармен, как на виновницу преступления.Кармен арестовывают.Хозе должен доставить еёв тюрьму.Но чары цыганки всесильны. Покорённый ими Хозе нарушает приказ и помогает бежать Кармен.Разгневанный полковник лишает Хозе воинского звания и оставляет его в тюрьме, ноно Кармен освобождает Хозе.Путь в казарму отрезан. Хозе остаётся с Кармен, которая приводит его к контрабандистам.Ночью контрабандисты устроили привал. Страстная любовь к Кармен удерживает Хозе в лагере контрабандистов.Старая цыганка предлагает Хозе предсказать его судьбу, но он обрывает магический ритуал.
У полковника праздник - весь город съезжается на бал - Кармен в числе приглашённых. Хозе наблюдает, как Кармен кокетничает с полковником.Уходя Кармен назначает свидание Хоза в доме старой цыганки.Кармен и Хозе одни. Наступает ночь любви. После свидания Хозе думает только о Кармен.Но Кармен больше не любит Хозе, Разрыв между ними неминуем!
Слишком велико различие между любовниками!...
Хореографическая постановка "Кармен" на бессмертную музыку Бизе и Щедрина перенесет Вас в далекую Испанию, в мир бушующих страстей и небывалых любовных интриг. Неповторимый национальный колорит, жгучий испанский темперамент и близкие каждому проблемы любви и ненависти, верности и измены
В Севильи происходит коррида. На арене, где происходит бой быков, Хозе видит ловкого тореадора Эскамильо, а среди горожан узнаёт Кармен.Достаточно было одного взгляда, чтобы понять, что Кармен увлечена Эскамильо.Тореадор срывает кокарду и приподносит её Кармен.Между Хозе и Эскамильо завязывается драка.Кармен останавливает поединок соперников.Хозе не верит, что она разлюбила его.Он падает к ногам Кармен, но она отказывает ему в любви.Межде ними всё кончено. Ярость обуяла Хозе.Он выхватывает нож и вонзает его в Кармен.
Смертью она утверждает свою свободу!
Доп. информация:
Режиссёр-постановщик - Народный артист Украины Вадим Елизаров
Главный балетмейстер - Заслуженная артистка Украины Нина Маршева
Звукорежиссёр - Заслуженный работник АРК Николай Рачинский.
Спектакль «Кармен» (премьерный показ состоялся 13 октября 2000 года) без преувеличения, можно считать первой серьезной театральной работай танцевальной труппы, после которой театр стал театром. Для новой постановки специально было написано либретто, выверена до мелочей каждая роль, каждый герой, каждый персонаж, а драматургия П. Мериме на музыку Ж.Бизе и Р. Щедрина оказалась вполне по силам начинающим артистам. Первыми исполнителями главных ролей были заслуженные артисты Украины Наталья Елизарова, Денис Елизаров и Сергей Гринев.
Что такое Севастопольский Театр Танца Вадима Елизарова? Прежде всего, это яркое, захватывающе и профессионально поставленное шоу, объединившее два вида искусств – танцевальное и театральное. Хореография спектакля основана на лексике Латиноамериканского и Европейского танца, помимо которой используются элементы сценического танца, степ-данса, модерна и джаз-балета. Под талантливым управлением Вадима Елизарова классические сюжеты превращаются в завораживающий и наэлектризованый спектакль, в котором есть все – живая музыка, эффектные декорации, и, конечно же, природный магнетизм и отточенное мастерство многократных победителей международных чемпионатов.
Спектакли севастопольского коллектива - это новая форма подачи сценического материала и, без преувеличения, новая страница в мировой хореографии. Аналогов коллективу попросту нет в мире. Любители театральных постановок, поклонники танцевального мастерства и ценители современного искусства – каждый находит в выступлениях севастопольского театра что-то свое. Полные залы в Германии, Франции, Швейцарии, Бельгии, Австрии, Голландии, Норвегии, Польше, Чехии, Венгрии, Израиле, Турции и Кипре, и конечно, Украине и России – лучшее тому доказательство.
В неповторимом сочетании грации и страсти, красноречии языка тела и стремлении к совершенству, театру Вадима Елизарова нет равных. Сделать мир красивее помогают как классические формы: "Кармен", "Собор парижской богоматери", "Пигмалион", так и современные танцевальные постановки - "История любви", "Аргентинское танго", "Exhibition", "Фуэте". Многожанровая мозаика "Избранное" - тщательно отобранная эклектика, приправленная современной хореографией уличной культуры.
Создатель театра Вадим Елизаров – народный артист Украины и лауреат государственных премий. Собрав 10 лет назад труппу из лучших танцоров страны, он до сих пор поддерживает неизменным уровень мастерства и свежесть сюжетов, рассказанных пленительным языком бального танца. Коллективу удалось совершить переворот в бальной классике и доказать, что ему по силам, сохранив высокие требования к исполнению бального танца, расширить рамки самовыражения, предложив зрителю совершенно эксклюзивный проект.
09 декабря 2009г на отчетном концерте "Театра танца" Вадима Елизарова, посвященному 10-летию коллектива, был оглашен Приказ Министра культуры и туризма Украины о присвоении севастопольскому "Театру танца" Вадима Елизарова звания - "академический".-Качество: DVD5
Формат: DVD-Video
Видео кодек: MPEG2
Аудио кодек: AC3
Видео: 720x576, PAL 4/3, MPEG-2 VBR, Summary bitrate - 8322.95 kbps avg
Аудио:Dolby AC3, 2 ch stereo, 48kHz, 192kbps

Скриншоты

MediaInfo

Общее
Полное имя : E:\Мои загрузки\Кармен\VIDEO\VIDEO_TS.BUP
Формат : DVD Video
Профиль формата : Menu
Размер файла : 14,0 Кбайт
Видео
Идентификатор : 224 (0xE0)
Формат : MPEG Video
Версия формата : Version 2
Вид битрейта : Переменный
Ширина : 720 пикс.
Высота : 576 пикс.
Соотношение сторон : 4:3
Частота кадров : 25,000 кадр/сек
Стандарт вещания : PAL
Метод сжатия : С потерями
Текст
Формат : RLE
Формат/Информация : Run-length encoding
Битовая глубина : 2 бит
Общее
Полное имя : E:\Мои загрузки\Кармен\VIDEO\VIDEO_TS.IFO
Формат : DVD Video
Профиль формата : Menu
Размер файла : 14,0 Кбайт
Видео
Идентификатор : 224 (0xE0)
Формат : MPEG Video
Версия формата : Version 2
Вид битрейта : Переменный
Ширина : 720 пикс.
Высота : 576 пикс.
Соотношение сторон : 4:3
Частота кадров : 25,000 кадр/сек
Стандарт вещания : PAL
Метод сжатия : С потерями
Текст
Формат : RLE
Формат/Информация : Run-length encoding
Битовая глубина : 2 бит
Общее
Полное имя : E:\Мои загрузки\Кармен\VIDEO\VIDEO_TS.VOB
Формат : MPEG-PS
Размер файла : 10,0 Кбайт
Продолжительность : 40 мс.
Общий поток : 2048 Кбит/сек
Видео
Идентификатор : 224 (0xE0)
Формат : MPEG Video
Версия формата : Version 2
Профиль формата : Main@Main
Параметр BVOP формата : Нет
Параметр матрицы формата : Выборочная
Продолжительность : 40 мс.
Вид битрейта : Постоянный
Битрейт : 9000 Кбит/сек
Ширина : 720 пикс.
Высота : 576 пикс.
Соотношение сторон : 4:3
Частота кадров : 25,000 кадр/сек
Стандарт вещания : PAL
Цветовое пространство : YUV
Подвыборка цветности : 4:2:0
Битовая глубина : 8 бит
Тип развёртки : Прогрессивная
Порядок развёртки : Верхнее поле первое
Метод сжатия : С потерями
Бит/(Пиксели*Кадры) : 0.868
Размер потока : 43,9 Кбайт
Меню
Общее
Полное имя : E:\Мои загрузки\Кармен\VIDEO\VTS_01_0.BUP
Формат : DVD Video
Профиль формата : Program
Размер файла : 38,0 Кбайт
Продолжительность : 1 ч. 1 м.
Общий поток : 84 бит/сек
Видео
Идентификатор : 224 (0xE0)
Формат : MPEG Video
Версия формата : Version 2
Продолжительность : 1 ч. 1 м.
Вид битрейта : Переменный
Ширина : 720 пикс.
Высота : 576 пикс.
Соотношение сторон : 4:3
Частота кадров : 25,000 кадр/сек
Стандарт вещания : PAL
Метод сжатия : С потерями
Аудио
Идентификатор : 128 (0x80)
Формат : AC-3
Формат/Информация : Audio Coding 3
Продолжительность : 1 ч. 1 м.
Каналы : 2 канала
Частота : 48,0 КГц
Метод сжатия : С потерями
Язык : English
Меню
Продолжительность : 1 ч. 1 м.
00:00:00.000 : Chapter 1
00:01:31.440 : Chapter 2
00:02:41.440 : Chapter 3
00:05:21.560 : Chapter 4
00:08:01.080 : Chapter 5
00:09:32.160 : Chapter 6
00:10:34.840 : Chapter 7
00:12:59.800 : Chapter 8
00:15:56.000 : Chapter 9
00:19:46.800 : Chapter 10
00:20:51.760 : Chapter 11
00:23:31.320 : Chapter 12
00:26:08.200 : Chapter 13
00:28:23.720 : Chapter 14
00:32:51.160 : Chapter 15
00:33:58.560 : Chapter 16
00:39:19.120 : Chapter 17
00:41:38.440 : Chapter 18
00:45:50.320 : Chapter 19
00:47:55.720 : Chapter 20
00:54:27.520 : Chapter 21
00:56:53.440 : Chapter 22
List (Audio) : 0
Общее
Полное имя : E:\Мои загрузки\Кармен\VIDEO\VTS_01_0.IFO
Формат : DVD Video
Профиль формата : Program
Размер файла : 38,0 Кбайт
Продолжительность : 1 ч. 1 м.
Общий поток : 84 бит/сек
Видео
Идентификатор : 224 (0xE0)
Формат : MPEG Video
Версия формата : Version 2
Продолжительность : 1 ч. 1 м.
Вид битрейта : Переменный
Ширина : 720 пикс.
Высота : 576 пикс.
Соотношение сторон : 4:3
Частота кадров : 25,000 кадр/сек
Стандарт вещания : PAL
Метод сжатия : С потерями
Аудио
Идентификатор : 128 (0x80)
Формат : AC-3
Формат/Информация : Audio Coding 3
Продолжительность : 1 ч. 1 м.
Каналы : 2 канала
Частота : 48,0 КГц
Метод сжатия : С потерями
Язык : English
Меню
Продолжительность : 1 ч. 1 м.
00:00:00.000 : Chapter 1
00:01:31.440 : Chapter 2
00:02:41.440 : Chapter 3
00:05:21.560 : Chapter 4
00:08:01.080 : Chapter 5
00:09:32.160 : Chapter 6
00:10:34.840 : Chapter 7
00:12:59.800 : Chapter 8
00:15:56.000 : Chapter 9
00:19:46.800 : Chapter 10
00:20:51.760 : Chapter 11
00:23:31.320 : Chapter 12
00:26:08.200 : Chapter 13
00:28:23.720 : Chapter 14
00:32:51.160 : Chapter 15
00:33:58.560 : Chapter 16
00:39:19.120 : Chapter 17
00:41:38.440 : Chapter 18
00:45:50.320 : Chapter 19
00:47:55.720 : Chapter 20
00:54:27.520 : Chapter 21
00:56:53.440 : Chapter 22
List (Audio) : 0
Общее
Полное имя : E:\Мои загрузки\Кармен\VIDEO\VTS_01_0.VOB
Формат : MPEG-PS
Размер файла : 4,21 Мбайт
Продолжительность : 2 м. 40 с.
Общий поток : 220 Кбит/сек
Видео
Идентификатор : 224 (0xE0)
Формат : MPEG Video
Версия формата : Version 2
Профиль формата : Main@Main
Параметр BVOP формата : Нет
Параметр матрицы формата : Выборочная
Параметры GOP формата : N=1
Продолжительность : 104 мс.
Вид битрейта : Постоянный
Битрейт : 23,3 Кбит/сек
Номинальный битрейт : 9000 Кбит/сек
Ширина : 720 пикс.
Высота : 576 пикс.
Соотношение сторон : 4:3
Частота кадров : 25,000 кадр/сек
Стандарт вещания : PAL
Цветовое пространство : YUV
Подвыборка цветности : 4:2:0
Битовая глубина : 8 бит
Тип развёртки : Прогрессивная
Порядок развёртки : Верхнее поле первое
Метод сжатия : С потерями
Бит/(Пиксели*Кадры) : 0.002
Размер потока : 303 байт (0%)
Аудио
Идентификатор : 189 (0xBD)-128 (0x80)
Формат : AC-3
Формат/Информация : Audio Coding 3
Расширение режима : CM (complete main)
Режим смешивания : DVD-Video
Продолжительность : 2 м. 40 с.
Вид битрейта : Постоянный
Битрейт : 192 Кбит/сек
Каналы : 2 канала
Расположение каналов : Front: L R
Частота : 48,0 КГц
Битовая глубина : 16 бит
Метод сжатия : С потерями
Задержка видео : 64 мс.
Размер потока : 3,68 Мбайт (87%)
Текст
Идентификатор : 189 (0xBD)-32 (0x20)
Формат : RLE
Формат/Информация : Run-length encoding
Режим смешивания : DVD-Video
Задержка видео : 64 мс.
Меню
Общее
Полное имя : E:\Мои загрузки\Кармен\VIDEO\VTS_01_1.VOB
Формат : MPEG-PS
Размер файла : 1024 Мбайт
Продолжительность : 17 м.
Общий поток : 8313 Кбит/сек
Видео
Идентификатор : 224 (0xE0)
Формат : MPEG Video
Версия формата : Version 2
Профиль формата : Main@Main
Параметр BVOP формата : Да
Параметр матрицы формата : По умолчанию
Продолжительность : 17 м.
Вид битрейта : Постоянный
Битрейт : 8000 Кбит/сек
Ширина : 720 пикс.
Высота : 576 пикс.
Соотношение сторон : 4:3
Частота кадров : 25,000 кадр/сек
Стандарт вещания : PAL
Цветовое пространство : YUV
Подвыборка цветности : 4:2:0
Битовая глубина : 8 бит
Тип развёртки : Чересстрочная
Порядок развёртки : Нижнее поле первое
Метод сжатия : С потерями
Бит/(Пиксели*Кадры) : 0.772
Размер потока : 980 Мбайт (96%)
Аудио
Идентификатор : 189 (0xBD)-128 (0x80)
Формат : AC-3
Формат/Информация : Audio Coding 3
Расширение режима : CM (complete main)
Режим смешивания : DVD-Video
Продолжительность : 17 м.
Вид битрейта : Постоянный
Битрейт : 192 Кбит/сек
Каналы : 2 канала
Расположение каналов : Front: L R
Частота : 48,0 КГц
Битовая глубина : 16 бит
Метод сжатия : С потерями
Размер потока : 23,6 Мбайт (2%)
Меню
Общее
Полное имя : E:\Мои загрузки\Кармен\VIDEO\VTS_01_2.VOB
Формат : MPEG-PS
Размер файла : 1024 Мбайт
Продолжительность : 17 м.
Общий поток : 8312 Кбит/сек
Видео
Идентификатор : 224 (0xE0)
Формат : MPEG Video
Версия формата : Version 2
Профиль формата : Main@Main
Параметр BVOP формата : Да
Параметр матрицы формата : По умолчанию
Продолжительность : 17 м.
Вид битрейта : Постоянный
Битрейт : 8000 Кбит/сек
Ширина : 720 пикс.
Высота : 576 пикс.
Соотношение сторон : 4:3
Частота кадров : 25,000 кадр/сек
Стандарт вещания : PAL
Цветовое пространство : YUV
Подвыборка цветности : 4:2:0
Битовая глубина : 8 бит
Тип развёртки : Чересстрочная
Порядок развёртки : Нижнее поле первое
Метод сжатия : С потерями
Бит/(Пиксели*Кадры) : 0.772
Размер потока : 980 Мбайт (96%)
Аудио
Идентификатор : 189 (0xBD)-128 (0x80)
Формат : AC-3
Формат/Информация : Audio Coding 3
Расширение режима : CM (complete main)
Режим смешивания : DVD-Video
Продолжительность : 17 м.
Вид битрейта : Постоянный
Битрейт : 192 Кбит/сек
Каналы : 2 канала
Расположение каналов : Front: L R
Частота : 48,0 КГц
Битовая глубина : 16 бит
Метод сжатия : С потерями
Задержка видео : -208 мс.
Размер потока : 23,7 Мбайт (2%)
Меню
Общее
Полное имя : E:\Мои загрузки\Кармен\VIDEO\VTS_01_3.VOB
Формат : MPEG-PS
Размер файла : 1024 Мбайт
Продолжительность : 17 м.
Общий поток : 8313 Кбит/сек
Видео
Идентификатор : 224 (0xE0)
Формат : MPEG Video
Версия формата : Version 2
Профиль формата : Main@Main
Параметр BVOP формата : Да
Параметр матрицы формата : По умолчанию
Параметры GOP формата : M=3, N=12
Продолжительность : 17 м.
Вид битрейта : Постоянный
Битрейт : 8000 Кбит/сек
Ширина : 720 пикс.
Высота : 576 пикс.
Соотношение сторон : 4:3
Частота кадров : 25,000 кадр/сек
Стандарт вещания : PAL
Цветовое пространство : YUV
Подвыборка цветности : 4:2:0
Битовая глубина : 8 бит
Тип развёртки : Чересстрочная
Порядок развёртки : Нижнее поле первое
Метод сжатия : С потерями
Бит/(Пиксели*Кадры) : 0.772
Размер потока : 980 Мбайт (96%)
Аудио
Идентификатор : 189 (0xBD)-128 (0x80)
Формат : AC-3
Формат/Информация : Audio Coding 3
Расширение режима : CM (complete main)
Режим смешивания : DVD-Video
Продолжительность : 17 м.
Вид битрейта : Постоянный
Битрейт : 192 Кбит/сек
Каналы : 2 канала
Расположение каналов : Front: L R
Частота : 48,0 КГц
Битовая глубина : 16 бит
Метод сжатия : С потерями
Задержка видео : -488 мс.
Размер потока : 23,7 Мбайт (2%)
Меню
Общее
Полное имя : E:\Мои загрузки\Кармен\VIDEO\VTS_01_4.VOB
Формат : MPEG-PS
Размер файла : 594 Мбайт
Продолжительность : 9 м. 59 с.
Общий поток : 8312 Кбит/сек
Видео
Идентификатор : 224 (0xE0)
Формат : MPEG Video
Версия формата : Version 2
Профиль формата : Main@Main
Параметр BVOP формата : Да
Параметр матрицы формата : По умолчанию
Параметры GOP формата : M=3, N=12
Продолжительность : 9 м. 59 с.
Вид битрейта : Постоянный
Битрейт : 8000 Кбит/сек
Ширина : 720 пикс.
Высота : 576 пикс.
Соотношение сторон : 4:3
Частота кадров : 25,000 кадр/сек
Стандарт вещания : PAL
Цветовое пространство : YUV
Подвыборка цветности : 4:2:0
Битовая глубина : 8 бит
Тип развёртки : Чересстрочная
Порядок развёртки : Нижнее поле первое
Метод сжатия : С потерями
Бит/(Пиксели*Кадры) : 0.772
Размер потока : 568 Мбайт (96%)
Аудио
Идентификатор : 189 (0xBD)-128 (0x80)
Формат : AC-3
Формат/Информация : Audio Coding 3
Расширение режима : CM (complete main)
Режим смешивания : DVD-Video
Продолжительность : 9 м. 59 с.
Вид битрейта : Постоянный
Битрейт : 192 Кбит/сек
Каналы : 2 канала
Расположение каналов : Front: L R
Частота : 48,0 КГц
Битовая глубина : 16 бит
Метод сжатия : С потерями
Задержка видео : -112 мс.
Размер потока : 13,7 Мбайт (2%)
Меню
ТОРРЕНТ ПЕРЕЗАЛИТ! БЫЛИ ДОПУЩЕНЫ ОШИБКИ В ОФОРМЛЕНИИ (подробности в комментариях)



Показать сообщения:    

Текущее время: 06-Дек 11:10

Часовой пояс: UTC + 3


Вы не можете начинать темы
Вы не можете отвечать на сообщения
Вы не можете редактировать свои сообщения
Вы не можете удалять свои сообщения
Вы не можете голосовать в опросах
Вы не можете прикреплять файлы к сообщениям
Вы не можете скачивать файлы