Сергей Прокофьев - Ромео и Джульетта (Валерий Гергиев, Диана Вишнёва, Владимир Шкляров) [Леонид Лавровский] / Sergey Prokofiev - Romeo and Juliet (Valery Gergiev, Diana Vishneva, Vladimir Shklyarov) [03.01.2013, Classic ballet, HDTVRip]


 

[Цитировать]

Ромео и Джульетта / Romeo and Juliet
Год выпуска: 03.01.2013
Лейбл: Mariinsky Theatre
Страна-производитель: Россия
Жанр: Classic ballet
Продолжительность: 02:35:44
Музыка: Сергей Сергеевич Прокофьев
Дирижер: Валерий Гергиев / Valery Gergiev
Исполнители музыки: Оркестр Мариинского театра
Режиссер/Хореограф: Леонид Лавровский / Leonid Lavrovsky
Исполнители:
Джульетта – Диана Вишнёва / Diana Vishneva
Ромео – Владимир Шкляров / Vladimir Shklyarov
Тибальд – Илья Кузнецов / Ilya Kuznetsov
Меркуцио – Александр Сергеев / Alexander Sergeyev
Треклист: Балет в 3-х действиях, 13-ти картинах
Описание: Запись трансляции балета MEZZO.
Доп. информация: Запись трансляции осуществлена alex7 за что ему огромное спасибо
Качество видео: HDTVRip
Формат/Контейнер: MKV
Видео кодек: H.264
Аудио кодек: MP3
Видео поток: MPEG4 Video (H264) 1280x720 25.00fps
Аудио поток: MPEG Audio Layer 3 48000Hz stereo 256 Kbps
сэмпл http://multi-up.com/843123

Mediainfo

Format : Matroska
File size : 6.84 GiB
Duration : 2h 35mn
Overall bit rate : 6 288 Kbps
Writing application : Lavf51.12.1
Writing library : Lavf51.12.1
Video
ID : 1
Format : AVC
Format/Info : Advanced Video Codec
Format profile : Baseline@L1.3
Format settings, CABAC : No
Format settings, ReFrames : 1 frame
Muxing mode : Container profile=Unknown@1.3
Codec ID : V_MPEG4/ISO/AVC
Duration : 2h 35mn
Bit rate : 5 907 Kbps
Width : 1 280 pixels
Height : 720 pixels
Display aspect ratio : 16:9
Frame rate : 25.000 fps
Color space : YUV
Chroma subsampling : 4:2:0
Bit depth : 8 bits
Scan type : Progressive
Bits/(Pixel*Frame) : 0.256
Stream size : 6.43 GiB (94%)
Audio
ID : 2
Format : MPEG Audio
Format version : Version 1
Format profile : Layer 3
Mode : Joint stereo
Codec ID : A_MPEG/L3
Codec ID/Hint : MP3
Duration : 2h 35mn
Bit rate mode : Constant
Bit rate : 256 Kbps
Channel(s) : 2 channels
Sampling rate : 48.0 KHz
Bit depth : 16 bits
Stream size : 285 MiB (4%)
Language : English

Скриншоты




Показать сообщения:    

Текущее время: 08-Дек 11:00

Часовой пояс: UTC + 3


Вы не можете начинать темы
Вы не можете отвечать на сообщения
Вы не можете редактировать свои сообщения
Вы не можете удалять свои сообщения
Вы не можете голосовать в опросах
Вы не можете прикреплять файлы к сообщениям
Вы не можете скачивать файлы