Агриппина Ваганова (Виктор Окунцов) [1986, биография, исторический фильм, VHSRip]


 

[Цитировать]

Агриппина Ваганова- -Год выпуска: 1986
Лейбл: Лентелефильм
Страна-производитель: СССР
Жанр: биография, исторический фильм
Продолжительность: 1:05:00
Язык: Русский
Режиссер: Виктор Окунцов-В фильме снимались:
Майя Плисецкая, Наталья Дудинская, Ирина Колпакова, Нинелла Кургапкина, Габриэла Комлева, Г. Мезенцева, Т. Терехова,
С. Бережной, К. Заклинский, М. Куллик, Г. Яблонская, Ж. Аюпова, В. Иванова, И. Чистякова, И. Шапчиц, М. Вазиев.
- Артисты балета Ленинградского государственного академического театра оперы и балета им. С. М. Кирова
- Текст читала Е. Юнгер-Исполнялись фрагменты из балетов :
Пётр Чайковский - "Лебединое озеро"
Людвиг Минкус - "Баядерка", "Дон Кихот", "Пахита"
Чезаре Пуньи - "Конёк-горбунок", "Эсмеральда"
Фредерик Шопен - "Шопениана"
Роберт Шуман - "Карнавал"-Описание: На сцене Кировского театра идет балет “Баядерка”, 3 акт “Тени”. Это -удивительное зрелище, воплощенная в движении музыка. Ни один театр в мире не хранит так свое наследие прошлого, как Мариинка. Необходимое условие для этого - школа. Здание хореографического училища - дочь капельдинера А.Ваганова вошла сюда в 10 лет. Она училась здесь и преподавала. Идут занятия. Класс ведёт ученица Вагановой - Дудинская. Ваганова начала преподавать в 20-м году. Единого метода не было. В театр она смогла пробиться не сразу, помогла поддержка её педагога Гердта. И оказалось, что сольная форма танца - вариации - ей наиболее близка. И в ней она добилась совершенства - ее называли “Царицей вариаций”. “Про тело она знала всё”, - говорят её ученицы. Балетная жизнь коротка. Получив титул балерины, она покинула сцену. После 17-го года многие артисты уехали зарубеж. Ваганова отказалась уехать. Имя Вагановой окружено легендами - ее строгость, оценки, непосредственность, редкие похвалы казались чудачествами. Она требовала умного отношения к танцу. Основными принципами ее педагогического метода были - ничего неясного, выразительность линий, чистота рисунка. Ее слава педагога вспыхнула как фейерверк и продолжает светить по сей день. Многие её знаменитые ученицы продолжают дело Вагановой и сегодня.-Доп. информация: В фильме использованы архивные материалы Ленинградского государственного музея театрального и музыкального искусства.- -Качество видео: VHSRip
Формат/Контейнер: MKV
Видео кодек: H.264/MPEG-4 AVC Codec
Аудио кодек: AC3
Видео поток: avc1, 704x528, 2450 kbps, 25 fps
Аудио поток: ac3, 192 kbps, 48.0 KHz, 2.0 dual mono-

Media info

H:\РЕЛИЗЫ\Балет\Агриппина Ваганова 1986 VHSRip.mkv General Unique ID : 229011744510443390860612408356155577607 (0xAC4A0EC14AC2097AAFA7F13304D25507) Complete name : H:\РЕЛИЗЫ\Балет\Агриппина Ваганова 1986 VHSRip.mkv Format : Matroska Format version : Version 4 / Version 2 File size : 1.20 GiB Duration : 1h 5mn Overall bit rate : 2 638 Kbps Encoded date : UTC 2013-03-13 08:45:27 Writing application : mkvmerge v6.0.0 ('Coming Up For Air') built on Jan 20 2013 09:52:00 Writing library : libebml v1.3.0 + libmatroska v1.4.0 Video #1 ID : 1 Format : AVC Format/Info : Advanced Video Codec Format profile : High@L4.1 Format settings, CABAC : Yes Format settings, ReFrames : 3 frames Codec ID : V_MPEG4/ISO/AVC Duration : 1h 5mn Bit rate : 2 450 Kbps Width : 704 pixels Height : 528 pixels Display aspect ratio : 4:3 Frame rate : 25.000 fps Standard : PAL Color space : YUV Chroma subsampling : 4:2:0 Bit depth : 8 bits Scan type : Progressive Bits/(Pixel*Frame) : 0.264 Stream size : 1.09 GiB (91%) Title : Агриппина Ваганова 1986 VHSRip Writing library : x264 core 129 r2230kMod 1cffe9f Encoding settings : cabac=1 / ref=3 / deblock=1:0:0 / analyse=0x3:0x13 / me=umh / subme=7 / psy=1 / fade_compensate=0.00 / psy_rd=1.00:0.00 / mixed_ref=1 / me_range=16 / chroma_me=1 / trellis=1 / 8x8dct=1 / cqm=0 / deadzone=21,11 / fast_pskip=1 / chroma_qp_offset=-2 / threads=8 / lookahead_threads=8 / sliced_threads=1 / slices=8 / nr=0 / decimate=1 / interlaced=0 / bluray_compat=0 / constrained_intra=0 / bframes=0 / weightp=2 / keyint=250 / keyint_min=25 / scenecut=40 / intra_refresh=0 / rc=abr / mbtree=0 / bitrate=2450 / ratetol=1.0 / qcomp=0.60 / qpmin=10 / qpmax=51 / qpstep=4 / ip_ratio=1.40 / aq=1:1.00 Language : Russian Default : Yes Forced : No Audio #2 ID : 2 Format : AC-3 Format/Info : Audio Coding 3 Mode extension : CM (complete main) Codec ID : A_AC3 Duration : 1h 5mn Bit rate mode : Constant Bit rate : 192 Kbps Channel(s) : 2 channels Channel positions : Front: L R Sampling rate : 48.0 KHz Bit depth : 16 bits Compression mode : Lossy Stream size : 89.3 MiB (7%) Title : Rus VHSRip by AleXounDirector Language : Russian Default : Yes Forced : No

-

Скриншоты

-



Показать сообщения:    

Текущее время: 07-Дек 23:21

Часовой пояс: UTC + 3


Вы не можете начинать темы
Вы не можете отвечать на сообщения
Вы не можете редактировать свои сообщения
Вы не можете удалять свои сообщения
Вы не можете голосовать в опросах
Вы не можете прикреплять файлы к сообщениям
Вы не можете скачивать файлы