Джоби Тэлбот - Алиса в стране чудес (Кристофер Уилдон) /Joby Talbot - Alice’s Adventures in Wonderland - Barry Wordsworth (Christopher Wheeldon) [2011, Modern ballet, BDRip 1080]


 

[Цитировать]

Алиса в стране чудес / Alice’s Adventures in Wonderland
Год выпуска: 2011
Лейбл: Opus Arte
Страна-производитель: Великобритания
Жанр: modern ballet
Продолжительность: 02:01:17
Композитор: Джоби Талбот / Joby Talbot - Все раздачи этого композитора на трекере
Дирижер: Барри Уордсворт / Barry Wordsworth
Исполнители музыки: Royal Opera House Orchestra
Режиссер/Хореограф: Кристофер Уилдон / Christopher Wheeldon
Исполнители:
Alice – Lauren Cuthbertson
Jack / Knave of Hearts – Sergei Polunin
Lewis Carroll / White Rabbit – Edward Watson
Mother / Queen of Hearts – Zenaida Yanowsky
Father / King of Hearts – Christopher Saunders
Magician / Mad Hatter – Steven McRae
Duchess – Simon Russell Beale
Треклист: Балет в двух актах
Описание: A new full-length ballet created by Christopher Wheeldon for The Royal Ballet. Alice’s Adventures in Wonderland brings a famous story and its equally famous characters to the ballet stage. The Victorian childhood of Lewis Carroll’s Alice and her encounters with extraordinary people, strange creatures and unusual events gives Wheeldon an entire new world to create. Written by Joby Talbot in 2010 the score is the the first full-length ballet score for The Royal Ballet for 20 years. With a scenario by Nicholas Wright (his adaptations have included His Dark Materials at the NT), and designs by the internationally acclaimed Bob Crowley, this is a compelling creative team indeed. Alice's Adventures in Wonderland was commisisoned by the Royal Ballet, Covent Garden, London and the National Ballet of Canada.
Сэмпл: http://multi-up.com/842089
Качество видео: BDRip
Формат/Контейнер: MKV
Видео кодек: H.264
Аудио кодек: DTS
Видео поток: MPEG4 Video (H264) 1920x1080 29.97fps
Аудио поток: DTS 48000Hz 6ch

Mediainfo

Format : Matroska
File size : 8.27 GiB
Duration : 2h 1mn
Overall bit rate : 9 757 Kbps
Encoded date : UTC 2013-03-12 14:18:05
Writing application : mkvmerge v2.4.2 ('Oh My God') built on Jan 18 2009 17:30:28
Writing library : libebml v0.7.7 + libmatroska v0.8.1
Video
ID : 1
Format : AVC
Format/Info : Advanced Video Codec
Format profile : High@L4.1
Format settings, CABAC : Yes
Format settings, ReFrames : 3 frames
Format settings, GOP : M=1, N=3
Muxing mode : Container profile=Unknown@4.1
Codec ID : V_MPEG4/ISO/AVC
Duration : 2h 1mn
Bit rate : 9 000 Kbps
Width : 1 920 pixels
Height : 1 080 pixels
Display aspect ratio : 16:9
Frame rate mode : Variable
Frame rate : 29.970 fps
Color space : YUV
Chroma subsampling : 4:2:0
Bit depth : 8 bits
Scan type : Progressive
Bits/(Pixel*Frame) : 0.145
Stream size : 7.46 GiB (90%)
Writing library : x264 core 116 r2019M 9cc407d
Encoding settings : cabac=1 / ref=3 / deblock=1:-1:-1 / analyse=0x3:0x133 / me=umh / subme=10 / psy=1 / psy_rd=1.00:0.15 / mixed_ref=1 / me_range=16 / chroma_me=1 / trellis=2 / 8x8dct=1 / cqm=0 / deadzone=21,11 / fast_pskip=1 / chroma_qp_offset=-3 / threads=8 / sliced_threads=0 / nr=0 / decimate=1 / interlaced=0 / bluray_compat=0 / constrained_intra=0 / bframes=3 / b_pyramid=1 / b_adapt=2 / b_bias=0 / direct=3 / weightb=1 / open_gop=0 / weightp=2 / keyint=290 / keyint_min=29 / scenecut=40 / intra_refresh=0 / rc_lookahead=40 / rc=2pass / mbtree=1 / bitrate=9000 / ratetol=1.0 / qcomp=0.60 / qpmin=10 / qpmax=51 / qpstep=4 / cplxblur=20.0 / qblur=0.5 / ip_ratio=1.40 / aq=1:1.00
Audio
ID : 2
Format : DTS
Format/Info : Digital Theater Systems
Codec ID : A_DTS
Duration : 2h 1mn
Bit rate mode : Constant
Bit rate : 755 Kbps
Channel(s) : 6 channels
Channel positions : Front: L C R, Side: L R, LFE
Sampling rate : 48.0 KHz
Bit depth : 24 bits
Stream size : 655 MiB (8%)

Скриншоты




Показать сообщения:    

Текущее время: 06-Дек 20:56

Часовой пояс: UTC + 3


Вы не можете начинать темы
Вы не можете отвечать на сообщения
Вы не можете редактировать свои сообщения
Вы не можете удалять свои сообщения
Вы не можете голосовать в опросах
Вы не можете прикреплять файлы к сообщениям
Вы не можете скачивать файлы