Сергей Прокофьев - Ромео и Джульетта (Кеннет Макмилан / Kenneth MacMillan) / Sergey Prokofiev - Romeo and Juliet (Barry Wordsworth, Federico Bonelli, Lauren Cuthbertson) [2012, Classic ballet, HDTVRip]


 

[Цитировать]

Ромео и Джульетта / Romeo and Juliet
Год выпуска: 2012
Лейбл: Royal Opera House
Страна-производитель: Великобритания
Жанр: Classic ballet
Продолжительность: 02:46:22
Музыка: Сергей Сергеевич Прокофьев
Дирижер: Barry Wordsworth
Исполнители музыки: Orchestra of the Royal Opera House
Режиссер/Хореограф: Кеннет Макмилан / Kenneth MacMillan
Исполнители:
Romeo: Federico Bonelli
Juliet: Lauren Cuthbertson
Mercutio: Alexander Campbell
Tybalt: Bennet Gartside
Benvolio: Dawid Trzensimiech
Paris: Vale Rihristov
Lord Capulet: Christopher Saunders
Lady Capulet: Christina Arestis
Escalus Prince of Verona: Gary Avis
Треклист: Балет в 3-х действиях, 13-ти картинах
Описание: Запись трансляции балета в марте 2012 года.
Доп. информация: Данный рип скачан из интернета.
Качество видео: HDTVRip
Формат/Контейнер: TS
Видео кодек: MPEG2
Аудио кодек: AC3
Видео поток: MPG2 1920x1080 25.00fps
Аудио поток: Dolby AC3 48000Hz 6ch
Сэмпл http://multi-up.com/840361

Mediainfo

Format : MPEG-TS
File size : 19.6 GiB
Duration : 2h 46mn
Overall bit rate : 16.9 Mbps
Video
ID : 308 (0x134)
Menu ID : 1 (0x1)
Format : MPEG Video
Format version : Version 2
Format profile : Main@High
Format settings, BVOP : Yes
Format settings, Matrix : Default
Format settings, GOP : M=3, N=12
Duration : 2h 46mn
Bit rate mode : Variable
Bit rate : 16.0 Mbps
Width : 1 920 pixels
Height : 1 080 pixels
Display aspect ratio : 16:9
Frame rate : 25.000 fps
Color space : YUV
Chroma subsampling : 4:2:0
Bit depth : 8 bits
Scan type : Interlaced
Scan order : Top Field First
Bits/(Pixel*Frame) : 0.309
Stream size : 18.1 GiB (92%)
Audio
ID : 256 (0x100)
Menu ID : 1 (0x1)
Format : AC-3
Format/Info : Audio Coding 3
Mode extension : CM (complete main)
Duration : 2h 46mn
Bit rate mode : Constant
Bit rate : 448 Kbps
Channel(s) : 6 channels
Channel positions : Front: L C R, Side: L R, LFE
Sampling rate : 48.0 KHz
Bit depth : 16 bits
Video delay : 17ms
Stream size : 533 MiB (3%)
Language : English

Скриншоты




Показать сообщения:    

Текущее время: 08-Дек 19:11

Часовой пояс: UTC + 3


Вы не можете начинать темы
Вы не можете отвечать на сообщения
Вы не можете редактировать свои сообщения
Вы не можете удалять свои сообщения
Вы не можете голосовать в опросах
Вы не можете прикреплять файлы к сообщениям
Вы не можете скачивать файлы