Пётр Чайковский - Щелкунчик (Мариинский театр) / Pyotr Tchaikovsky: The Nutcracker [2012, Балет, сказка, BDRip (720p)]


 

[Цитировать]

Пётр Чайковский - Щелкунчик (Мариинский театр) / Pyotr Tchaikovsky: The Nutcracker
Год выпуска: 2012
Лейбл: EuroArts, Warner Classics
Страна-производитель: Россия, Великобритания
Жанр: Балет, сказка
Продолжительность: 01:43:30
Язык: Классическая музыка
Перевод: Не требуется
Субтитры: Отсутствуют
Режиссер/Хореограф: Валерий Гергиев, Мариус Петипа, Василий Вайнонен
Исполнители: Алина Сомова, Владимир Шкляров, Александра Коршунова, Фёдор Лопухов, Владимир Пономарев, Александра Гронская, Алёна Машинцева, Павел Михеев, Лира Хусламова, Станислав Буров, Валерия Карпина, Константин Ивкин
Доп. информация: Лицензия | Официальный сайт
Описание: В декабре 2012 года балет Петра Ильича Чайковского "Щелкунчик" отметил свой 120-летний юбилей. Детская сказка, волшебство Нового года, так мы привыкли видеть и воспринимать «Щелкунчика» как балет-праздник. Но за яркостью музыкальных форм, пышностью сценического оформления и красотой исполнительского искусства таится глубокий философский замысел. Несколько основных тем творчества Гофмана составляют основу идейного содержания и балета по его произведению. Это иллюзорность грани между явью и сном, живыми существами и неживыми предметами и игрушками, оппозиция мира взрослых и мира детей, борьба благородства и мелочного зла, сокрытая за маской чудачества мудрость (в образе Дроссельмейера), всепобеждающая любовь и главнейшая тема — поиски человеком своей истинной природы. Щелкунчик занимает особое место среди поздних произведении П. И. Чайковского; стоит обособленно от традиции балетного жанра, новаторски применены музыкальные образы. Он является для композитора точкой отсчета в поисках смысла жизни, именно в нем слышны раздумия на тему вечного. Марии́нский теа́тр (с 1934 по 1992 год - Ленинградский государственный академический театр оперы и балета имени С. М. Кирова) - один из крупнейших в России театров оперы и балета.
Релиз:

Треклист

1. Увертюра2. Действие первое. 1. Картина 1. 1. Украшение Рождественской Елки 2. Марш 3. Детский галоп и выход гостей 4. Сцена с танцами (выход Дроссельмаера) 1. Танец заводных кукол (мазурка) 2. Демонический танец 5. Сцена и танец родителей (Гроссфатер) 6. Сцена (Уход гостей. Ночь) 1. Первый вальс Маши с Щелкунчиком 2. Полька 3. Колыбельная 7. Сцена (Сражение) 2. Картина 2. 1. Сцена (Еловый лес зимой) (рост ёлки) 2. Вальс снежных хлопьев (танец снежинок)3. Действие второе. 1. Сцена (Дворец сластей Конфетенбург) 2. Сцена (Прибытие Клары и Щелкунчика) 3. Дивертисмент 1. Шоколад (Испанский танец) 2. Кофе (Арабский танец) 3. Чай (Китайский танец) 4. Трепак (Русский танец) (карамельная трость) 5. Танец пастушков (Датский марципан) 6. Мамаша Гигонь (Жигонь) и паяцы 4. Вальс цветов 5. Па-де-де (Фея Драже и принц Оршад) 1. Вариация I (Тарантелла) 2. Вариация II (Танец Феи Драже) 3. Кода 4. Финальный вальс 5. Апофеоз
Качество видео: BDRip (720p)
Формат/Контейнер: MKV
Видео кодек: H.264
Аудио кодек: AAC, AC3, DTS, FLAC
Видео поток: 1280x720 at 29.970 fps, x264 High@L3.1, ~5320 kbps
Аудио потоки:
#1: AAC, 2/0 (L,R), 48 kHz, 16-bit, ~288 kbps avg (в контейнере)
#2: AC3, 3/2 (L,C,R,l,r) + LFE ch, 48 kHz, 16-bit, ~448 kbps avg
#3: DTS, 3/2 (L,C,R,l,r) + LFE ch, 48 kHz, 24-bit, ~768 kbps avg
#4: FLAC+CUE, 2/0 (L,R), 48 kHz, 24-bit, ~1346 kbps avg
Главы: Присутствуют и подписаны

♪ FLAC+CUE ♪

♪ FLAC ♪ + *.CUE folder.jpg

Медиа-Инфо

GeneralUnique ID : 222980724664351092178119434377820084475 (0xA7C08684E38FF155A42EB163F3F798FB)Complete name : Tchaikovsky_The.Nutcracker_Mariinsky.Theatre-Gergiev.mkvFormat : MatroskaFormat version : Version 4 / Version 2File size : 3.99 GiBDuration : 1h 43mnOverall bit rate : 5 523 KbpsMovie name : The.Nutcracker_Mariinsky-Gergiev.2012.720p.BDRip.x264-AAC_HDGeekEncoded date : UTC 2010-02-22 21:41:31Writing application : mkvmerge v5.9.0 ('On The Loose') built on Dec 9 2012 15:37:01Writing library : libebml v1.3.0 + libmatroska v1.4.0
VideoID : 1Format : AVCFormat/Info : Advanced Video CodecFormat profile : High@L3.1Format settings, CABAC : YesFormat settings, ReFrames : 4 framesCodec ID : V_MPEG4/ISO/AVCDuration : 1h 43mnNominal bit rate : 5 230 KbpsWidth : 1 280 pixelsHeight : 720 pixelsDisplay aspect ratio : 16:9Frame rate mode : ConstantFrame rate : 29.970 fpsColor space : YUVChroma subsampling : 4:2:0Bit depth : 8 bitsScan type : ProgressiveBits/(Pixel*Frame) : 0.189Title : Tchaikovsky - The Nutcracker - Mariinsky Theatre, Gergiev (2012)Writing library : x264 core 129 r2230 1cffe9fEncoding settings : cabac=1 / ref=5 / deblock=1:0:0 / analyse=0x3:0x133 / me=umh / subme=10 / psy=1 / psy_rd=1.00:0.00 / mixed_ref=1 / me_range=24 / chroma_me=1 / trellis=2 / 8x8dct=1 / cqm=0 / deadzone=21,11 / fast_pskip=1 / chroma_qp_offset=-2 / threads=12 / lookahead_threads=2 / sliced_threads=0 / nr=0 / decimate=1 / interlaced=0 / bluray_compat=0 / constrained_intra=0 / bframes=12 / b_pyramid=1 / b_adapt=2 / b_bias=0 / direct=3 / weightb=1 / open_gop=0 / weightp=2 / keyint=250 / keyint_min=25 / scenecut=40 / intra_refresh=0 / rc_lookahead=60 / rc=2pass / mbtree=1 / bitrate=5230 / ratetol=1.0 / qcomp=0.60 / qpmin=0 / qpmax=69 / qpstep=4 / cplxblur=20.0 / qblur=0.5 / ip_ratio=1.40 / aq=1:1.00Default : YesForced : No
AudioID : 2Format : AACFormat/Info : Advanced Audio CodecFormat profile : LCCodec ID : A_AACDuration : 1h 43mnBit rate mode : VariableBit rate : 288 KbpsMaximum bit rate : 420 KbpsChannel(s) : 2 channelsChannel positions : Front: L RSampling rate : 48.0 KHzCompression mode : LossyDelay relative to video : 20msTitle : AAC 2.0 48KHz @ 288 kbps (16-bit)Default : YesForced : No
Menu00:00:00.000 : en:-= INTRO =-00:00:30.000 : en:Miniature Overture00:03:52.032 : en:Decorating the Christmas Tree00:06:55.215 : en:Lighting the Christmas Tree00:07:58.511 : en:MARCH00:10:33.099 : en:Children's Galop and Dance of the Parents00:13:16.996 : en:Arrival of Drosselmeyer - Dance Scene, part 100:16:12.305 : en:Arrival of Drosselmeyer - Dance Scene, part 200:19:11.450 : en:The Nutcracker and Grandfather Dance00:29:37.709 : en:Clara and the Nutcracker & The Battle00:39:47.986 : en:A Pine Forest in Winter00:44:30.001 : en:Waltz of the Snowflakes00:52:06.991 : en:The Magic Castle on the Mountain of Sweets00:56:00.958 : en:Clara and Nutcracker Prince01:00:47.043 : en:Div.1, Chocolate [Spanish Dance]01:02:20.003 : en:Div.2, Coffee [Arabian Dance]01:07:05.955 : en:Div.3, Tea [Chinese Dance]01:08:33.977 : en:Div.4, Trepak [Russian Dance]01:09:57.994 : en:Div.5, Polichinelles01:13:36.512 : en:Waltz of the Flowers01:21:03.225 : en:Pas de Deux01:27:50.499 : en:Intrada, Variation I: Prince Orgeat [Tarantella]01:29:01.937 : en:Intrada, Variation II: Dance of the Sugar Plum Fairy01:31:29.084 : en:Sugar Plum Fairy and Prince Orgeat - CODA01:33:26.468 : en:Final Waltz and Apotheosis01:37:09.957 : en:OUTRO (with Applauses)01:38:16.810 : en:Curtain Calls and Applauses01:41:57.020 : en:-= credits =-
GeneralComplete name : Tchaikovsky_The.Nutcracker_Mariinsky.Theatre-Gergiev.ac3Format : AC-3Format/Info : Audio Coding 3File size : 332 MiBDuration : 1h 43mnOverall bit rate mode : ConstantOverall bit rate : 448 Kbps
AudioFormat : AC-3Format/Info : Audio Coding 3Mode extension : CM (complete main)Format settings, Endianness : BigDuration : 1h 43mnBit rate mode : ConstantBit rate : 448 KbpsChannel(s) : 6 channelsChannel positions : Front: L C R, Side: L R, LFESampling rate : 48.0 KHzBit depth : 16 bitsCompression mode : LossyStream size : 332 MiB (100%)
GeneralComplete name : Tchaikovsky_The.Nutcracker_Mariinsky.Theatre-Gergiev.dtsFormat : DTSFormat/Info : Digital Theater SystemsFile size : 559 MiBDuration : 1h 43mnOverall bit rate mode : ConstantOverall bit rate : 755 Kbps
AudioFormat : DTSFormat/Info : Digital Theater SystemsMode : 16Format settings, Endianness : BigDuration : 1h 43mnBit rate mode : ConstantBit rate : 755 KbpsChannel(s) : 6 channelsChannel positions : Front: L C R, Side: L R, LFESampling rate : 48.0 KHzBit depth : 24 bitsCompression mode : LossyStream size : 559 MiB
GeneralComplete name : Tchaikovsky_The.Nutcracker_Mariinsky.Theatre-Gergiev.flacFormat : FLACFormat/Info : Free Lossless Audio CodecFile size : 996 MiBDuration : 1h 43mnOverall bit rate mode : VariableOverall bit rate : 1 346 KbpsAlbum : Tchaikovsky - The NutcrackerAlbum/Performer : Mariinsky Orchestra, GergievTrack name/Total : 28 / 28Performer : Mariinsky Orchestra, GergievGenre : ClassicalRecorded date : 2012Cover : YesCover type : Cover (front)Cover MIME : image/jpegComment : BDRip FLAC 24-bitcuesheet : REM GENRE Classical / REM DATE 2012 / REM COMMENT BDRip FLAC 24-bit / PERFORMER "Mariinsky Orchestra, Gergiev" / TITLE "Tchaikovsky - The Nutcracker" / FILE "Tchaikovsky_The.Nutcracker_Mariinsky.Theatre-Gergiev.flac" WAVE / TRACK 01 AUDIO / TITLE "-= INTRO =-" / PERFORMER "Mariinsky Orchestra, Gergiev" / INDEX 01 00:00:00 / TRACK 02 AUDIO / TITLE "Miniature Overture" / PERFORMER "Mariinsky Orchestra, Gergiev" / INDEX 01 00:30:00 / TRACK 03 AUDIO / TITLE "Decorating the Christmas Tree" / PERFORMER "Mariinsky Orchestra, Gergiev" / INDEX 01 03:52:03 / TRACK 04 AUDIO / TITLE "Lighting the Christmas Tree" / PERFORMER "Mariinsky Orchestra, Gergiev" / INDEX 01 06:55:21 / TRACK 05 AUDIO / TITLE "March" / PERFORMER "Mariinsky Orchestra, Gergiev" / INDEX 01 07:58:51 / TRACK 06 AUDIO / TITLE "Children's Galop and Dance of the Parents" / PERFORMER "Mariinsky Orchestra, Gergiev" / INDEX 01 10:33:09 / TRACK 07 AUDIO / TITLE "Arrival of Drosselmeyer - Dance Scene, part 1" / PERFORMER "Mariinsky Orchestra, Gergiev" / INDEX 01 13:17:24 / TRACK 08 AUDIO / TITLE "Arrival of Drosselmeyer - Dance Scene, part 2" / PERFORMER "Mariinsky Orchestra, Gergiev" / INDEX 01 16:12:30 / TRACK 09 AUDIO / TITLE "The Nutcracker and Grandfather Dance" / PERFORMER "Mariinsky Orchestra, Gergiev" / INDEX 01 19:11:45 / TRACK 10 AUDIO / TITLE "Clara and the Nutcracker & The Battle" / PERFORMER "Mariinsky Orchestra, Gergiev" / INDEX 01 29:37:70 / TRACK 11 AUDIO / TITLE "A Pine Forest in Winter" / PERFORMER "Mariinsky Orchestra, Gergiev" / INDEX 01 39:48:23 / TRACK 12 AUDIO / TITLE "Waltz of the Snowflakes" / PERFORMER "Mariinsky Orchestra, Gergiev" / INDEX 01 44:30:00 / TRACK 13 AUDIO / TITLE "The Magic Castle on the Mountain of Sweets" / PERFORMER "Mariinsky Orchestra, Gergiev" / INDEX 01 52:07:24 / TRACK 14 AUDIO / TITLE "Clara and Nutcracker Prince" / PERFORMER "Mariinsky Orchestra, Gergiev" / INDEX 01 56:01:20 / TRACK 15 AUDIO / TITLE "Div.1, Chocolate [Spanish Dance]" / PERFORMER "Mariinsky Orchestra, Gergiev" / INDEX 01 60:47:04 / TRACK 16 AUDIO / TITLE "Div.2, Coffee [Arabian Dance]" / PERFORMER "Mariinsky Orchestra, Gergiev" / INDEX 01 62:20:00 / TRACK 17 AUDIO / TITLE "Div.3, Tea [Chinese Dance]" / PERFORMER "Mariinsky Orchestra, Gergiev" / INDEX 01 67:06:20 / TRACK 18 AUDIO / TITLE "Div.4, Trepak [Russian Dance]" / PERFORMER "Mariinsky Orchestra, Gergiev" / INDEX 01 68:34:22 / TRACK 19 AUDIO / TITLE "Div.5, Polichinelles" / PERFORMER "Mariinsky Orchestra, Gergiev" / INDEX 01 69:58:24 / TRACK 20 AUDIO / TITLE "Waltz of the Flowers" / PERFORMER "Mariinsky Orchestra, Gergiev" / INDEX 01 73:36:51 / TRACK 21 AUDIO / TITLE "Pas de Deux" / PERFORMER "Mariinsky Orchestra, Gergiev" / INDEX 01 81:03:22 / TRACK 22 AUDIO / TITLE "Intrada, Variation I: Prince Orgeat [Tarantella]" / PERFORMER "Mariinsky Orchestra, Gergiev" / INDEX 01 87:50:49 / TRACK 23 AUDIO / TITLE "Intrada, Variation II: Dance of the Sugar Plum Fairy" / PERFORMER "Mariinsky Orchestra, Gergiev" / INDEX 01 89:02:18 / TRACK 24 AUDIO / TITLE "Sugar Plum Fairy and Prince Orgeat - CODA" / PERFORMER "Mariinsky Orchestra, Gergiev" / INDEX 01 91:29:08 / TRACK 25 AUDIO / TITLE "Final Waltz and Apotheosis" / PERFORMER "Mariinsky Orchestra, Gergiev" / INDEX 01 93:26:46 / TRACK 26 AUDIO / TITLE "OUTRO (with Applauses)" / PERFORMER "Mariinsky Orchestra, Gergiev" / INDEX 01 97:10:20 / TRACK 27 AUDIO / TITLE "Curtain Calls and Applauses" / PERFORMER "Mariinsky Orchestra, Gergiev" / INDEX 01 98:17:06 / TRACK 28 AUDIO / TITLE "-= credits =-" / PERFORMER "Mariinsky Orchestra, Gergiev" / INDEX 01 101:57:02
AudioFormat : FLACFormat/Info : Free Lossless Audio CodecDuration : 1h 43mnBit rate mode : VariableBit rate : 1 346 KbpsChannel(s) : 2 channelsSampling rate : 48.0 KHzBit depth : 24 bitsStream size : 996 MiB (100%)Writing library : libFLAC 1.2.1 (UTC 2007-09-17)
GeneralComplete name : Tchaikovsky_The.Nutcracker_Mariinsky.Theatre-Gergiev.flac.cueFile size : 3.76 KiB
GeneralComplete name : folder.jpgFormat : JPEGFile size : 112 KiB
ImageFormat : JPEGWidth : 500 pixelsHeight : 500 pixelsColor space : YUVChroma subsampling : 4:2:2Bit depth : 8 bitsCompression mode : LossyStream size : 112 KiB (100%)

Скриншоты






Показать сообщения:    

Текущее время: 04-Дек 11:14

Часовой пояс: UTC + 3


Вы не можете начинать темы
Вы не можете отвечать на сообщения
Вы не можете редактировать свои сообщения
Вы не можете удалять свои сообщения
Вы не можете голосовать в опросах
Вы не можете прикреплять файлы к сообщениям
Вы не можете скачивать файлы