Большой балет. Гала-концерт и Послесловие (2-е и 9-е декабря) Алла Сигалова, Святослав Бэлза [2012, Балет, Телеканал "Культура", DVB]


 

[Цитировать]

Большой балет. Гала-концерт и Послесловие-Год выпуска: 2012
Страна: Россия
Жанр: Балет
Продолжительность: 02:33:47 (Гала-концерт) + 00:59:44 (Послесловие)

Первая часть проекта - Большой балет - Алла Сигалова, Святослав Бэлза [2012., Балет, Телеканал "Культура", DVB]-Описание: «Большой Балет» – беспрецедентный проект телеканала «Россия К» и главное событие нового телевизионного сезона. Это первый в истории отечественного телевидения балетный конкурс молодых исполнителей, участниками которого стали дуэты из шести ведущих российских театров: Анна Тихомирова и Артём Овчаренко, (Большой театр России), Ольга Смирнова и Владислав Лантратов (Большой театр России), Кристина Шапран и Сергей Полунин (Музыкальный театр им. К.С. Станиславского и В.И. Немировича-Данченко), Андрей Ермаков (Мариинский театр) и Виктория Терёшкина (специальный гость проекта), Лариса Люшина и Андрей Сорокин (Екатеринбургский театр оперы и балета), Александр Таранов и Ксения Барбашева (Пермский театр оперы и балета им. П.И. Чайковского), Кристина Андреева и Олег Ивенко (Татарский театр оперы и балета им. М. Джалиля). Ведущие проекта – Алла Сигалова и Святослав Бэлза.
Главная цель – открыть широкому зрителю новых звёзд в балетном искусстве, дать возможность молодым артистам проявить себя, продемонстрировав не только безупречную технику, но и драматический талант, представить богатое наследие классического балета и лучшие образцы современной хореографии. «Этот проект создан специально для того, чтобы показать нашей стране и всему миру, что у нас есть уникальные артисты балета, и мы открыты и к современным течениям в мире хореографии, и готовы сохранять то, что у нас есть», – убеждена заслуженная артистка России Алла Сигалова.
В течение двух месяцев участники «Большого Балета» будут соревноваться за Гран-при («Лучший дуэт»), в номинациях «Лучшая балерина» и «Лучший танцовщик», а также за приз зрительских симпатий по результатам sms-голосования.
В подготовке молодых танцовщиков приняли участие лучшие хореографы мира: Дэвид Доусон (Великобритания), Акрам Хан (Великобритания), Йорма Эло (США), Раду Поклитару (Украина), Алла Сигалова (Россия), Иван Перез (Нидерланды), Эмиль Фаски (Германия), Фернандо Эрнандо Магадан (Нидерланды), Вячеслав Самодуров (Россия), Алексей Мирошниченко (Россия).
Оценивать выступления артистов будет высокопрофессиональное жюри, в составе которого звёзды мирового балета – художественный руководитель балетной труппы Флорентийского театра Maggio Danza Владимир Деревянко, репетитор балетной труппы «Bejart Ballet Lausanne» Азарий Плисецкий, под председательством примы-балерины Мариинского театра Дианы Вишневой. В каждой программе к жюри присоединятся приглашенные гости – директор Латвийской национальной оперы Андрейс Жагарс; актёр и режиссёр Константин Райкин, интендант объединённой труппы Государственного балета Берлина Владимир Малахов, художественный руководитель балетной труппы Михайловского театра Начо Дуато, режиссёр Роман Виктюк, балетмейстер Андриан Фадеев, выдающаяся российская балерина Алла Осипенко, дирижер Михаил Татарников, знаменитая оперная певица Мария Гулегина, актриса и режиссёр Рената Литвинова.-Все раздачи-|- СЕМПЛ-Доп. информация:
● здесь выложен DVB - т.е. необрезанный и не кодированный исходник (в DVB черные полосы не удаляются и размер файла не ужимается).-Качество: DVB
Формат: MPEG
Видео кодек: MPEG2
Аудио кодек: MPEG1 Layer 2
Видео: MPEG2 Video, 704x576 (4:3), 25.00fps, 3 061 Kbps, 0.302 bit/pixel
Аудио: MPEG Audio, 48000Hz, 2ch, 192 Кбит/сек-

MI

Общее
Полное имя                               : F:\2012.12.02_Bol'shoj.Balet_GalaKoncert.(DVB.AleMak).mpg
Формат                                   : MPEG-PS
Размер файла                             : 3,57 Гбайт
Продолжительность                        : 2 ч. 33 м.
Режим общего битрейта                    : Переменный
Общий поток                              : 3319 Кбит/сек
Библиотека кодирования                   : (c) 1998-2008 Womble Multimedia, Inc. / MPEG Video Wizard (12/2008) / Mar 31 2009
Видео
Идентификатор                            : 224 (0xE0)
Формат                                   : MPEG Video
Версия формата                           : Version 2
Профиль формата                          : Main@Main
Параметр BVOP формата                    : Да
Параметр матрицы формата                 : Выборочная
Продолжительность                        : 2 ч. 33 м.
Вид битрейта                             : Переменный
Битрейт                                  : 3061 Кбит/сек
Максимальный битрейт                     : 15,0 Мбит/сек
Ширина                                   : 704 пикселя
Высота                                   : 576 пикселей
Соотношение сторон                       : 4:3
Частота кадров                           : 25,000 кадров/сек
Стандарт вещания                         : PAL
Цветовое пространство                    : YUV
Субдискретизация насыщенности            : 4:2:0
Битовая глубина                          : 8 бит
Тип развёртки                            : Чересстрочная
Порядок развёртки                        : Верхнее поле первое
Метод сжатия                             : С потерями
Бит/(Пиксели*Кадры)                      : 0.302
Размер потока                            : 3,29 Гбайт (92%)
Библиотека кодирования                   : (c) 1998-2008 Womble Multimedia, Inc. / MPEG Video Wizard (12/2008) / Mar 31 2009
Аудио
Идентификатор                            : 192 (0xC0)
Формат                                   : MPEG Audio
Версия формата                           : Version 1
Профиль формата                          : Layer 2
Продолжительность                        : 2 ч. 33 м.
Вид битрейта                             : Постоянный
Битрейт                                  : 192 Кбит/сек
Каналы                                   : 2 канала
Частота                                  : 48,0 КГц
Метод сжатия                             : С потерями
Задержка видео                           : -80 мс.
Размер потока                            : 211 Мбайт (6%)

Скринлисты




Показать сообщения:    

Текущее время: 07-Дек 17:27

Часовой пояс: UTC + 3


Вы не можете начинать темы
Вы не можете отвечать на сообщения
Вы не можете редактировать свои сообщения
Вы не можете удалять свои сообщения
Вы не можете голосовать в опросах
Вы не можете прикреплять файлы к сообщениям
Вы не можете скачивать файлы