Театр танца Вадима Елизарова - Fantastic Show (Вадим Елизаров)[2005, Хореаграфический спектакль, DVD5]


 

[Цитировать]

Fantastic Show
Год выпуска: 2005
Страна-производитель: Украина - Видео Мастер.
Жанр: Хореаграфический спектакль
Продолжительность: 01:08:15
Режиссер/Хореограф: Вадим Елизаров
Исполнители: Актёры театра танца Вадима Елизарова
Треклист:
1. Australian waltz
2. Retro
3. Sex Bomb
4. Modern
5. Turkish dance
6. Rock and Roll
7. Skirt
8. Russian dance
9. Feeling
10. Romance
11. Adagio
12. Shalom Aleihem
13. Waltz Dogi
14. Spanish Dance
Описание:
Единственный в мире театральный коллектив, строящий свои хореографические спектакли на основе лексики бального танца. Вы увидите латиноамериканский и европейский формейшен, оригинальные постановки в разнообразных хореографических стилях, индивидуальные шоу-номера.
Качество видео: DVD5
Формат/Контейнер: DVDVideo
Видео кодек: MPEG2
Аудио кодек: PCM
Видео поток: PAL 4:3, (720x576), VBR, 8529.67 kbps avg,
Аудио поток: LinearPCM, 2 ch , 48KHz,16bits

Скриншоты

MediaInfo

Общее
Полное имя : E:\РАЗНОЕ\Мои загрузки\Fantastik.Show.2005.DVD-5\VIDEO_TS\VIDEO_TS.BUP
Формат : DVD Video
Профиль формата : Menu
Размер файла : 12,0 Кбайт
Режим общего битрейта : Переменный
Видео
Идентификатор : 224 (0xE0)
Формат : MPEG Video
Версия формата : Version 2
Вид битрейта : Переменный
Ширина : 720 пикселей
Высота : 576 пикселей
Соотношение сторон : 4:3
Частота кадров : 25,000 кадров/сек
Стандарт вещания : PAL
Метод сжатия : С потерями
Аудио
Формат : PCM
Каналы : 2 канала
Частота : 48,0 КГц
Текст
Формат : RLE
Формат/Информация : Run-length encoding
Битовая глубина : 2 бит
Общее
Полное имя : E:\РАЗНОЕ\Мои загрузки\Fantastik.Show.2005.DVD-5\VIDEO_TS\VIDEO_TS.IFO
Формат : DVD Video
Профиль формата : Menu
Размер файла : 12,0 Кбайт
Режим общего битрейта : Переменный
Видео
Идентификатор : 224 (0xE0)
Формат : MPEG Video
Версия формата : Version 2
Вид битрейта : Переменный
Ширина : 720 пикселей
Высота : 576 пикселей
Соотношение сторон : 4:3
Частота кадров : 25,000 кадров/сек
Стандарт вещания : PAL
Метод сжатия : С потерями
Аудио
Формат : PCM
Каналы : 2 канала
Частота : 48,0 КГц
Текст
Формат : RLE
Формат/Информация : Run-length encoding
Битовая глубина : 2 бит
Общее
Полное имя : E:\РАЗНОЕ\Мои загрузки\Fantastik.Show.2005.DVD-5\VIDEO_TS\VIDEO_TS.VOB
Формат : MPEG-PS
Размер файла : 288 Кбайт
Продолжительность : 1 с. 240 мс.
Режим общего битрейта : Переменный
Общий поток : 1903 Кбит/сек
Видео
Идентификатор : 224 (0xE0)
Формат : MPEG Video
Версия формата : Version 2
Профиль формата : Main@Main
Параметр BVOP формата : Нет
Параметр матрицы формата : По умолчанию
Параметр GOP формата : N=1
Продолжительность : 1 с. 240 мс.
Вид битрейта : Переменный
Битрейт : 1865 Кбит/сек
Максимальный битрейт : 8000 Кбит/сек
Ширина : 720 пикселей
Высота : 576 пикселей
Соотношение сторон : 4:3
Частота кадров : 25,000 кадров/сек
Стандарт вещания : PAL
Цветовое пространство : YUV
Субдискретизация насыщенности : 4:2:0
Битовая глубина : 8 бит
Тип развёртки : Чересстрочная
Порядок развёртки : Нижнее поле первое
Метод сжатия : С потерями
Бит/(Пиксели*Кадры) : 0.180
Размер потока : 282 Кбайт (98%)
Основные цвета : BT.470-2 System B, BT.470-2 System G
Характеристики трансфера : BT.470-2 System B, BT.470-2 System G
Коэффициенты матрицы : BT.470-2 System B, BT.470-2 System G
Меню
Общее
Полное имя : E:\РАЗНОЕ\Мои загрузки\Fantastik.Show.2005.DVD-5\VIDEO_TS\VTS_01_0.BUP
Формат : DVD Video
Профиль формата : Program
Размер файла : 62,0 Кбайт
Продолжительность : 1 ч. 8 м.
Режим общего битрейта : Переменный
Общий поток : 124 бит/сек
Видео
Идентификатор : 224 (0xE0)
Формат : MPEG Video
Версия формата : Version 2
Продолжительность : 1 ч. 8 м.
Вид битрейта : Переменный
Ширина : 720 пикселей
Высота : 576 пикселей
Соотношение сторон : 4:3
Частота кадров : 25,000 кадров/сек
Стандарт вещания : PAL
Метод сжатия : С потерями
Аудио
Идентификатор : 0 (0x0)
Формат : PCM
Продолжительность : 1 ч. 8 м.
Каналы : 2 канала
Частота : 48,0 КГц
Меню
Продолжительность : 1 ч. 8 м.
00:00:00.000 : Chapter 1
00:03:53.760 : Chapter 2
00:09:16.320 : Chapter 3
00:13:40.320 : Chapter 4
00:15:14.880 : Chapter 5
00:20:29.760 : Chapter 6
00:22:41.760 : Chapter 7
00:25:12.000 : Chapter 8
00:30:27.360 : Chapter 9
00:34:39.840 : Chapter 10
00:42:51.360 : Chapter 11
00:47:09.600 : Chapter 12
00:53:30.240 : Chapter 13
00:56:55.200 : Chapter 14
List (Audio) : 0
Общее
Полное имя : E:\РАЗНОЕ\Мои загрузки\Fantastik.Show.2005.DVD-5\VIDEO_TS\VTS_01_0.IFO
Формат : DVD Video
Профиль формата : Program
Размер файла : 62,0 Кбайт
Продолжительность : 1 ч. 8 м.
Режим общего битрейта : Переменный
Общий поток : 124 бит/сек
Видео
Идентификатор : 224 (0xE0)
Формат : MPEG Video
Версия формата : Version 2
Продолжительность : 1 ч. 8 м.
Вид битрейта : Переменный
Ширина : 720 пикселей
Высота : 576 пикселей
Соотношение сторон : 4:3
Частота кадров : 25,000 кадров/сек
Стандарт вещания : PAL
Метод сжатия : С потерями
Аудио
Идентификатор : 0 (0x0)
Формат : PCM
Продолжительность : 1 ч. 8 м.
Каналы : 2 канала
Частота : 48,0 КГц
Меню
Продолжительность : 1 ч. 8 м.
00:00:00.000 : Chapter 1
00:03:53.760 : Chapter 2
00:09:16.320 : Chapter 3
00:13:40.320 : Chapter 4
00:15:14.880 : Chapter 5
00:20:29.760 : Chapter 6
00:22:41.760 : Chapter 7
00:25:12.000 : Chapter 8
00:30:27.360 : Chapter 9
00:34:39.840 : Chapter 10
00:42:51.360 : Chapter 11
00:47:09.600 : Chapter 12
00:53:30.240 : Chapter 13
00:56:55.200 : Chapter 14
List (Audio) : 0
Общее
Полное имя : E:\РАЗНОЕ\Мои загрузки\Fantastik.Show.2005.DVD-5\VIDEO_TS\VTS_01_0.VOB
Формат : MPEG-PS
Размер файла : 14,1 Мбайт
Продолжительность : 1 м. 12 с.
Режим общего битрейта : Переменный
Общий поток : 1625 Кбит/сек
Видео
Идентификатор : 224 (0xE0)
Формат : MPEG Video
Версия формата : Version 2
Профиль формата : Main@Main
Параметр BVOP формата : Да
Параметр матрицы формата : По умолчанию
Продолжительность : 1 м. 12 с.
Вид битрейта : Переменный
Битрейт : 57,0 Кбит/сек
Максимальный битрейт : 8000 Кбит/сек
Ширина : 720 пикселей
Высота : 576 пикселей
Соотношение сторон : 4:3
Частота кадров : 25,000 кадров/сек
Стандарт вещания : PAL
Цветовое пространство : YUV
Субдискретизация насыщенности : 4:2:0
Битовая глубина : 8 бит
Тип развёртки : Прогрессивная
Метод сжатия : С потерями
Бит/(Пиксели*Кадры) : 0.005
Размер потока : 504 Кбайт (4%)
Аудио
Идентификатор : 189 (0xBD)-160 (0xA0)
Формат : PCM
Параметр Endianness формата : Big
Параметр Sign формата : Signed
Режим смешивания : DVD-Video
Продолжительность : 1 м. 12 с.
Вид битрейта : Постоянный
Битрейт : 1536 Кбит/сек
Каналы : 2 канала
Частота : 48,0 КГц
Битовая глубина : 16 бит
Размер потока : 13,3 Мбайт (95%)
Текст
Идентификатор : 189 (0xBD)-32 (0x20)
Формат : RLE
Формат/Информация : Run-length encoding
Режим смешивания : DVD-Video
Меню
Общее
Полное имя : E:\РАЗНОЕ\Мои загрузки\Fantastik.Show.2005.DVD-5\VIDEO_TS\VTS_01_1.VOB
Формат : MPEG-PS
Размер файла : 1000 Мбайт
Продолжительность : 16 м.
Режим общего битрейта : Переменный
Общий поток : 8492 Кбит/сек
Видео
Идентификатор : 224 (0xE0)
Формат : MPEG Video
Версия формата : Version 2
Профиль формата : Main@Main
Параметр BVOP формата : Да
Параметр матрицы формата : По умолчанию
Параметр GOP формата : M=3, N=12
Продолжительность : 16 м.
Вид битрейта : Переменный
Битрейт : 6787 Кбит/сек
Максимальный битрейт : 8000 Кбит/сек
Ширина : 720 пикселей
Высота : 576 пикселей
Соотношение сторон : 4:3
Частота кадров : 25,000 кадров/сек
Стандарт вещания : PAL
Цветовое пространство : YUV
Субдискретизация насыщенности : 4:2:0
Битовая глубина : 8 бит
Тип развёртки : Чересстрочная
Порядок развёртки : Нижнее поле первое
Метод сжатия : С потерями
Бит/(Пиксели*Кадры) : 0.655
Размер потока : 799 Мбайт (80%)
Аудио
Идентификатор : 189 (0xBD)-160 (0xA0)
Формат : PCM
Параметр Endianness формата : Big
Параметр Sign формата : Signed
Режим смешивания : DVD-Video
Продолжительность : 16 м.
Вид битрейта : Постоянный
Битрейт : 1536 Кбит/сек
Каналы : 2 канала
Частота : 48,0 КГц
Битовая глубина : 16 бит
Размер потока : 181 Мбайт (18%)
Меню
Общее
Полное имя : E:\РАЗНОЕ\Мои загрузки\Fantastik.Show.2005.DVD-5\VIDEO_TS\VTS_01_2.VOB
Формат : MPEG-PS
Размер файла : 1000 Мбайт
Продолжительность : 16 м.
Режим общего битрейта : Переменный
Общий поток : 8493 Кбит/сек
Видео
Идентификатор : 224 (0xE0)
Формат : MPEG Video
Версия формата : Version 2
Профиль формата : Main@Main
Параметр BVOP формата : Да
Параметр матрицы формата : По умолчанию
Параметр GOP формата : M=3, N=12
Продолжительность : 16 м.
Вид битрейта : Переменный
Битрейт : 6788 Кбит/сек
Максимальный битрейт : 8000 Кбит/сек
Ширина : 720 пикселей
Высота : 576 пикселей
Соотношение сторон : 4:3
Частота кадров : 25,000 кадров/сек
Стандарт вещания : PAL
Цветовое пространство : YUV
Субдискретизация насыщенности : 4:2:0
Битовая глубина : 8 бит
Тип развёртки : Чересстрочная
Порядок развёртки : Нижнее поле первое
Метод сжатия : С потерями
Бит/(Пиксели*Кадры) : 0.655
Размер потока : 799 Мбайт (80%)
Аудио
Идентификатор : 189 (0xBD)-160 (0xA0)
Формат : PCM
Параметр Endianness формата : Big
Параметр Sign формата : Signed
Режим смешивания : DVD-Video
Продолжительность : 16 м.
Вид битрейта : Постоянный
Битрейт : 1536 Кбит/сек
Каналы : 2 канала
Частота : 48,0 КГц
Битовая глубина : 16 бит
Задержка видео : -802 мс.
Размер потока : 181 Мбайт (18%)
Меню
Общее
Полное имя : E:\РАЗНОЕ\Мои загрузки\Fantastik.Show.2005.DVD-5\VIDEO_TS\VTS_01_3.VOB
Формат : MPEG-PS
Размер файла : 1000 Мбайт
Продолжительность : 16 м.
Режим общего битрейта : Переменный
Общий поток : 8491 Кбит/сек
Видео
Идентификатор : 224 (0xE0)
Формат : MPEG Video
Версия формата : Version 2
Профиль формата : Main@Main
Параметр BVOP формата : Да
Параметр матрицы формата : По умолчанию
Параметр GOP формата : M=3, N=12
Продолжительность : 16 м.
Вид битрейта : Переменный
Битрейт : 6786 Кбит/сек
Максимальный битрейт : 8000 Кбит/сек
Ширина : 720 пикселей
Высота : 576 пикселей
Соотношение сторон : 4:3
Частота кадров : 25,000 кадров/сек
Стандарт вещания : PAL
Цветовое пространство : YUV
Субдискретизация насыщенности : 4:2:0
Битовая глубина : 8 бит
Тип развёртки : Чересстрочная
Порядок развёртки : Нижнее поле первое
Метод сжатия : С потерями
Бит/(Пиксели*Кадры) : 0.655
Размер потока : 799 Мбайт (80%)
Аудио
Идентификатор : 189 (0xBD)-160 (0xA0)
Формат : PCM
Параметр Endianness формата : Big
Параметр Sign формата : Signed
Режим смешивания : DVD-Video
Продолжительность : 16 м.
Вид битрейта : Постоянный
Битрейт : 1536 Кбит/сек
Каналы : 2 канала
Частота : 48,0 КГц
Битовая глубина : 16 бит
Задержка видео : -496 мс.
Размер потока : 181 Мбайт (18%)
Меню
Общее
Полное имя : E:\РАЗНОЕ\Мои загрузки\Fantastik.Show.2005.DVD-5\VIDEO_TS\VTS_01_4.VOB
Формат : MPEG-PS
Размер файла : 1000 Мбайт
Продолжительность : 16 м.
Режим общего битрейта : Переменный
Общий поток : 8496 Кбит/сек
Видео
Идентификатор : 224 (0xE0)
Формат : MPEG Video
Версия формата : Version 2
Профиль формата : Main@Main
Параметр BVOP формата : Да
Параметр матрицы формата : По умолчанию
Параметр GOP формата : M=3, N=12
Продолжительность : 16 м.
Вид битрейта : Переменный
Битрейт : 6791 Кбит/сек
Максимальный битрейт : 8000 Кбит/сек
Ширина : 720 пикселей
Высота : 576 пикселей
Соотношение сторон : 4:3
Частота кадров : 25,000 кадров/сек
Стандарт вещания : PAL
Цветовое пространство : YUV
Субдискретизация насыщенности : 4:2:0
Битовая глубина : 8 бит
Тип развёртки : Чересстрочная
Порядок развёртки : Нижнее поле первое
Метод сжатия : С потерями
Бит/(Пиксели*Кадры) : 0.655
Размер потока : 799 Мбайт (80%)
Аудио
Идентификатор : 189 (0xBD)-160 (0xA0)
Формат : PCM
Параметр Endianness формата : Big
Параметр Sign формата : Signed
Режим смешивания : DVD-Video
Продолжительность : 16 м.
Вид битрейта : Постоянный
Битрейт : 1536 Кбит/сек
Каналы : 2 канала
Частота : 48,0 КГц
Битовая глубина : 16 бит
Задержка видео : -421 мс.
Размер потока : 181 Мбайт (18%)
Меню
Общее
Полное имя : E:\РАЗНОЕ\Мои загрузки\Fantastik.Show.2005.DVD-5\VIDEO_TS\VTS_01_5.VOB
Формат : MPEG-PS
Размер файла : 150 Мбайт
Продолжительность : 2 м. 32 с.
Режим общего битрейта : Переменный
Общий поток : 8259 Кбит/сек
Видео
Идентификатор : 224 (0xE0)
Формат : MPEG Video
Версия формата : Version 2
Профиль формата : Main@Main
Параметр BVOP формата : Да
Параметр матрицы формата : По умолчанию
Параметр GOP формата : M=3, N=12
Продолжительность : 2 м. 31 с.
Вид битрейта : Переменный
Битрейт : 6559 Кбит/сек
Максимальный битрейт : 8000 Кбит/сек
Ширина : 720 пикселей
Высота : 576 пикселей
Соотношение сторон : 4:3
Частота кадров : 25,000 кадров/сек
Стандарт вещания : PAL
Цветовое пространство : YUV
Субдискретизация насыщенности : 4:2:0
Битовая глубина : 8 бит
Тип развёртки : Чересстрочная
Порядок развёртки : Нижнее поле первое
Метод сжатия : С потерями
Бит/(Пиксели*Кадры) : 0.633
Размер потока : 119 Мбайт (79%)
Аудио
Идентификатор : 189 (0xBD)-160 (0xA0)
Формат : PCM
Параметр Endianness формата : Big
Параметр Sign формата : Signed
Режим смешивания : DVD-Video
Продолжительность : 2 м. 32 с.
Вид битрейта : Постоянный
Битрейт : 1536 Кбит/сек
Каналы : 2 канала
Частота : 48,0 КГц
Битовая глубина : 16 бит
Задержка видео : -411 мс.
Размер потока : 27,8 Мбайт (19%)
Меню
-
-
-ТОРРЕНТ ПЕРЕЗАЛИТ с целью соответствия раздачи правилам оформления (подробности в комментариях)



Показать сообщения:    

Текущее время: 04-Дек 23:15

Часовой пояс: UTC + 3


Вы не можете начинать темы
Вы не можете отвечать на сообщения
Вы не можете редактировать свои сообщения
Вы не можете удалять свои сообщения
Вы не можете голосовать в опросах
Вы не можете прикреплять файлы к сообщениям
Вы не можете скачивать файлы