Людвиг Минкус - Баядерка (Наталия Макарова, Валерий Овсянников, Карлос Акоста, Марианела Нуньес, Тамара Рохо) / Ludwig Minkus - La Bayadere (Carlos Acosta, Marianela Nunez, Tamara Rojo) [2009, Ballet, HDTVRip]


 

[Цитировать]

Баядерка / La Bayadere
Внимание! Файл перезалит 18.08.2012 в 23.10. Исправлен рассинхрон звука.
Год выпуска: 2009
Страна-производитель: Великобритания, Royal Opera House, Opus Arte
Жанр: Ballet
Продолжительность: 02:04:26
Перевод: не требуется
Субтитры: нет
Режиссер/Хореограф: Наталия Макарова / Natalia Makarova
Музыка: Людвиг Минкус (Ludwig Minkus)
Исполнители музыки: Оркестр Королевского театра «Ковент-Гарден»
Дирижер: Валерий Овсянников (Valeriy Ovsyanikov)
Исполнители:
Carlos Acosta (Solar),
Marianela Nunez (Gamzatti),
Tamara Rojo (Nikiya),
Gary Avis (The High Brahmin),
Chrisopher Saunders (Rajah),
Kenta Kura (Magdaveya),
Valeri Hristov (Solor’s Friend)
Описание:
Балет на музыку Людвига Минкуса в четырех актах, семи картинах с апофеозом.
Доп. информация:
Раздача рипа alex7. Огромное спасибо автору.
Запись с канала Brava HDTV
В файле есть дефекты в виде рассыпания картинки.
Раздачи спектакля Баядерка на сайте в поиске
семпл http://multi-up.com/747373
Качество видео: HDTVRip
Формат/Контейнер: AVI
Видео кодек: DivX
Аудио кодек: AC3
Видео поток: 1280x720 (1.78:1), 29.970 fps, DivX Codec 5.x or 6.x ~6114 kbps avg, 0.22 bit/pixel
Аудио поток: 48 kHz, AC3 Dolby Digital, 2/0 (L,R) ch, ~448 kbps

Mediainfo

Format : AVI
Format/Info : Audio Video Interleave
Format profile : OpenDML
File size : 5.71 GiB
Duration : 2h 4mn
Overall bit rate : 6 571 Kbps
Writing application : VirtualDubModRus 1.5.10.2 (build 2540/release)
Writing library : VirtualDubMod build 2540/release
Video
ID : 0
Format : MPEG-4 Visual
Format profile : Simple@L1
Format settings, BVOP : No
Format settings, QPel : No
Format settings, GMC : No warppoints
Format settings, Matrix : Default (H.263)
Codec ID : DX50
Codec ID/Hint : DivX 5
Duration : 2h 4mn
Bit rate : 6 113 Kbps
Width : 1 280 pixels
Height : 720 pixels
Display aspect ratio : 16:9
Frame rate : 29.970 fps
Color space : YUV
Chroma subsampling : 4:2:0
Bit depth : 8 bits
Scan type : Progressive
Bits/(Pixel*Frame) : 0.221
Stream size : 5.31 GiB (93%)
Writing library : Lavc51.40.4
Audio
ID : 1
Format : AC-3
Format/Info : Audio Coding 3
Mode extension : CM (complete main)
Codec ID : 2000
Duration : 2h 4mn
Bit rate mode : Constant
Bit rate : 448 Kbps
Channel(s) : 2 channels
Channel positions : Front: L R
Sampling rate : 48.0 KHz
Bit depth : 16 bits
Video delay : 25ms
Stream size : 399 MiB (7%)
Alignment : Split accross interleaves
Interleave, duration : 33 ms (1.00 video frame)
Interleave, preload duration : 500 ms

Скриншоты




Показать сообщения:    

Текущее время: 08-Дек 08:59

Часовой пояс: UTC + 3


Вы не можете начинать темы
Вы не можете отвечать на сообщения
Вы не можете редактировать свои сообщения
Вы не можете удалять свои сообщения
Вы не можете голосовать в опросах
Вы не можете прикреплять файлы к сообщениям
Вы не можете скачивать файлы