Людвиг Минкус - Баядерка (Франсуа Руссильон, Фейсал Каруи, Орели Дюпон) / Ludwig Minkus - La Bayadere (Francois Roussillon, Faycal Karoui, Aurelie Dupont) [2012, Ballet, HDTVRip]


 

[Цитировать]

Людвиг Минкус - Баядерка
Ludwig Minkus - La Bayadere
Год выпуска: 2012
Лейбл: Pathe
Страна-производитель: Франция
Жанр: Ballet
Продолжительность: 02:24:08
Язык: Французский
Перевод: Не требуется
Субтитры: Нет
Оркестр: Парижской национальной оперы
Дирижёр: Фейсал Каруи (Faycal Karoui)
Режиссер/Хореограф: Франсуа Руссильон (Francois Roussillon)
Исполнители:
Орели Дюпон (Aurelie Dupont) - Никия, баядерка
Жосуа Хоффальт (Josua Hoffalt) - Солор, богатый и знаменитый кшатрия
Людмила Пальеро, прима (Ludmila Pagliero) - Гамзатти, дочь Солора
Стефан Фаворин, прим (Stephane Phavorin) - Дугманта, раджа Гольконда
Флоримон Лорье (Florimond Lorieux) - Золотой идол
Ян Саез (Yann Saiz) - Великий брамин
Аллистер Мадин (Allister Madin) - Магдавая, факир

Описание: Балет в четырёх действиях и семи картинах с апофеозом балетмейстера Мариуса Петипа на музыку Людвига Федоровича Минкуса. Литературным источником балета «Баядерка» является драма индийского классика Калидасы «Шакунтала» и баллада Вольфганга Иоганна Гёте «Бог и баядерка». В основе сюжета — романтичная восточная легенда о несчастной любви баядерки и храброго воина. «Баядерка» – один из выдающихся балетных спектаклей, завораживающий своим драматизмом и танцевальной насыщенностью. Среди фантастических балетмейстерских откровений – акт «Теней», один из поэтичнейших в мировом балетном наследии. Когда высоко над сценой, словно возникая из воздуха, одна за другой появляются тридцать две танцовщицы-тени и в бесконечно повторяющемся движении арабеска постепенно заполняют сцену, сердце перехватывает от пронзительной грусти этого призрачно-лунного эпизода.
Запись выступления 22 марта 2012 года, Опера Бастилия, Париж.

Исходник: http://teatrix.ru/viewtopic.php?t=3392
Качество видео: HDTVRip
Формат/Контейнер: AVI
Видео кодек: XviD
Аудио кодек: AC3
Видео поток: MPEG-4 Visual, ~ 1770 Кбит/сек, 704 x 400 (1.760), 25.000 fps, ~ 0.25 bit/pixel
Аудио поток: AC-3, 384 Кбит/сек, 6 каналов, 48,0 КГц

MediaInfo

Общее
Полное имя : Minkus-La.Bayadere.(1.iz.3).2012.HDTVRip.avi
Формат : AVI
Формат/Информация : Audio Video Interleave
Размер файла : 822 Мбайт
Продолжительность : 53 м.
Общий поток : 2164 Кбит/сек
Программа кодирования : VirtualDubMod 1.5.10.3 | www.virtualdub-fr.org || (build 2550/release)
Видео
Идентификатор : 0
Формат : MPEG-4 Visual
Профиль формата : Advanced Simple@L5
Параметр BVOP формата : 2
Параметр QPel формата : Нет
Параметр GMC формата : Без точки перехода
Параметр матрицы формата : Default (MPEG)
Идентификатор кодека : XVID
Идентификатор кодека/Подсказка : XviD
Продолжительность : 53 м.
Битрейт : 1770 Кбит/сек
Ширина : 704 пикселя
Высота : 400 пикселей
Соотношение сторон : 16:9
Частота кадров : 25,000 кадров/сек
Цветовое пространство : YUV
Субдискретизация насыщенности : 4:2:0
Битовая глубина : 8 бит
Тип развёртки : Прогрессивная
Метод сжатия : С потерями
Бит/(Пиксели*Кадры) : 0.251
Размер потока : 672 Мбайт (82%)
Библиотека кодирования : XviD 64
Аудио
Идентификатор : 1
Формат : AC-3
Формат/Информация : Audio Coding 3
Расширение режима : CM (complete main)
Идентификатор кодека : 2000
Продолжительность : 53 м.
Вид битрейта : Постоянный
Битрейт : 384 Кбит/сек
Каналы : 6 каналов
Расположение каналов : Front: L C R, Side: L R, LFE
Частота : 48,0 КГц
Битовая глубина : 16 бит
Метод сжатия : С потерями
Размер потока : 146 Мбайт (18%)
Выравнивание : Разделение по промежуткам
Продолжительность промежутка : 40 мс. (1,00 видеокадр)
Время предзагрузки промежутка : 500 мс.
Общее
Полное имя : Minkus-La.Bayadere.(2.iz.3).2012.HDTVRip.avi
Формат : AVI
Формат/Информация : Audio Video Interleave
Размер файла : 636 Мбайт
Продолжительность : 40 м.
Общий поток : 2170 Кбит/сек
Программа кодирования : VirtualDubMod 1.5.10.3 | www.virtualdub-fr.org || (build 2550/release)
Видео
Идентификатор : 0
Формат : MPEG-4 Visual
Профиль формата : Advanced Simple@L5
Параметр BVOP формата : 2
Параметр QPel формата : Нет
Параметр GMC формата : Без точки перехода
Параметр матрицы формата : Default (MPEG)
Идентификатор кодека : XVID
Идентификатор кодека/Подсказка : XviD
Продолжительность : 40 м.
Битрейт : 1776 Кбит/сек
Ширина : 704 пикселя
Высота : 400 пикселей
Соотношение сторон : 16:9
Частота кадров : 25,000 кадров/сек
Цветовое пространство : YUV
Субдискретизация насыщенности : 4:2:0
Битовая глубина : 8 бит
Тип развёртки : Прогрессивная
Метод сжатия : С потерями
Бит/(Пиксели*Кадры) : 0.252
Размер потока : 520 Мбайт (82%)
Библиотека кодирования : XviD 64
Аудио
Идентификатор : 1
Формат : AC-3
Формат/Информация : Audio Coding 3
Расширение режима : CM (complete main)
Идентификатор кодека : 2000
Продолжительность : 40 м.
Вид битрейта : Постоянный
Битрейт : 384 Кбит/сек
Каналы : 6 каналов
Расположение каналов : Front: L C R, Side: L R, LFE
Частота : 48,0 КГц
Битовая глубина : 16 бит
Метод сжатия : С потерями
Размер потока : 113 Мбайт (18%)
Выравнивание : Разделение по промежуткам
Продолжительность промежутка : 40 мс. (1,00 видеокадр)
Время предзагрузки промежутка : 500 мс.
Общее
Полное имя : Minkus-La.Bayadere.(3.iz.3).2012.HDTVRip.avi
Формат : AVI
Формат/Информация : Audio Video Interleave
Размер файла : 775 Мбайт
Продолжительность : 50 м.
Общий поток : 2165 Кбит/сек
Программа кодирования : VirtualDubMod 1.5.10.3 | www.virtualdub-fr.org || (build 2550/release)
Видео
Идентификатор : 0
Формат : MPEG-4 Visual
Профиль формата : Advanced Simple@L5
Параметр BVOP формата : 2
Параметр QPel формата : Нет
Параметр GMC формата : Без точки перехода
Параметр матрицы формата : Default (MPEG)
Идентификатор кодека : XVID
Идентификатор кодека/Подсказка : XviD
Продолжительность : 50 м.
Битрейт : 1771 Кбит/сек
Ширина : 704 пикселя
Высота : 400 пикселей
Соотношение сторон : 16:9
Частота кадров : 25,000 кадров/сек
Цветовое пространство : YUV
Субдискретизация насыщенности : 4:2:0
Битовая глубина : 8 бит
Тип развёртки : Прогрессивная
Метод сжатия : С потерями
Бит/(Пиксели*Кадры) : 0.252
Размер потока : 634 Мбайт (82%)
Библиотека кодирования : XviD 64
Аудио
Идентификатор : 1
Формат : AC-3
Формат/Информация : Audio Coding 3
Расширение режима : CM (complete main)
Идентификатор кодека : 2000
Продолжительность : 50 м.
Вид битрейта : Постоянный
Битрейт : 384 Кбит/сек
Каналы : 6 каналов
Расположение каналов : Front: L C R, Side: L R, LFE
Частота : 48,0 КГц
Битовая глубина : 16 бит
Метод сжатия : С потерями
Размер потока : 137 Мбайт (18%)
Выравнивание : Разделение по промежуткам
Продолжительность промежутка : 40 мс. (1,00 видеокадр)
Время предзагрузки промежутка : 500 мс.

Скриншоты




Показать сообщения:    

Текущее время: 06-Дек 13:15

Часовой пояс: UTC + 3


Вы не можете начинать темы
Вы не можете отвечать на сообщения
Вы не можете редактировать свои сообщения
Вы не можете удалять свои сообщения
Вы не можете голосовать в опросах
Вы не можете прикреплять файлы к сообщениям
Вы не можете скачивать файлы