Адольф Адан - Корсар (Алексей Ратманский, Юрий Бурлака, Павел Клиничев, Светлана Лунькина, Руслан Скворцов, Алексей Лопаревич, Александр Фадеечев) / Adolphe Adam - Le Corsaire [2012, Ballet, HDTVRip]


 

[Цитировать]

Адольф Адан - Корсар
Adolphe Adam - Le Corsaire
Год выпуска: 2012
Лейбл: Pathe, Bel Air Media
Страна-производитель: Россия
Жанр: Ballet
Продолжительность: 02:49:41
Язык: Английский, французский, русский
Перевод: Не требуется
Субтитры: Нет
Балет и оркестр: Большого театра
Дирижёр: Павел Клиничев
Режиссер/Хореограф: Алексей Ратманский, Юрий Бурлака
Исполнители:
Светлана Лунькина - Медора, молодая гречанка, воспитанница Исаака Ланкедема
Руслан Скворцов - Конрад, корсар
Алексей Лопаревич - Сеид-паша
Андрей Меркурьев - Бирбанто, один из главных корсаров
Кристина Карасева - Зюльма, любимая султанша паши
Нина Капцова - Гюльнара, невольница паши
Геннадий Янин - Исаак Ланкедем, хозяин базара
Андрей Ситников - Смотритель гарема Сеида-паши
Анастасия Винокур - Негритянка
Александр Фадеечев - Муфтий

Описание: Эта постановка Большого театра предназначена для людей, которые всё ещё ищут в театре чудес. А если вы к тому же любите балет так, как его любил Петипа, украсивший старинный парижский оригинал великолепными хореографическими картинами и номерами собственного сочинения, и так, как его любят создатели версии «Корсара» Большого-2007 Алексей Ратманский и Юрий Бурлака, постаравшиеся воссоздать, где — творения своего знаменитого предшественника, а где — просто его почерк, вы станете посещать представления этого балета с тем же постоянством, что «Баядерку» или «Лебединое озеро». Это настоящий «большой балет», где танца хватает едва ли не на всю труппу сразу, при этом прима-балерина доказывает право на своё первенство почти без отдыха. И хотя этот «Корсар» далеко ушёл от своего литературного первоисточника (а это была одноимённая поэма Байрона), либретто его способно удовлетворить обозначившуюся в обществе тягу к пиратско-романтическому жанру. Создатели балета изучили соответствующие архивные материалы в московском Бахрушинском музее и Санкт-Петербургской театральной бибилиотеке, с помощью Парижской оперы отыскали оригинальную партитуру в недрах Национальной библиотеки Франции, воспроизвели старинные костюмы и декорации, расшифровали хранившиеся в Гарварде записи танцев и сочинили свои, стараясь ни в чём не погрешить против духа той эпохи, когда любил, тонул и спасался последний из «Корсаров» Петипа — 1899 г. рождения. Сто с лишним лет спустя — так можно назвать этот авантюрный и абсолютно серьёзный роман Большого театра и большого балета.
Бонусы: интервью с Юрием Бурлакой (00:09:14) и Еленой Зайцевой (00:04:18) (французский, английский, русский языки)
Исходник HDTVRip MKV: http://teatrix.ru/viewtopic.php?t=3396
Качество видео: HDTVRip
Формат/Контейнер: AVI
Видео кодек: XviD
Аудио кодек: AC3
Видео поток: MPEG-4 Visual, ~ 1640 Кбит/сек, 704 x 400 (1.760), 25.000 fps, ~ 0.23 bit/pixel
Аудио поток: AC-3, 384 Кбит/сек, 6 каналов, 48,0 КГц
Видео поток (интервью): MPEG-4 Visual, ~ 1200 Кбит/сек, 704 x 400 (1.760), 25.000 fps, ~ 0.17 bit/pixel
Аудио поток (интервью): AC-3, 192 Кбит/сек, 2 канала, 48,0 КГц

MediaInfo

Общее
Полное имя : Adam-Le.Corsaire.(1.iz.3).2012.HDTVRip.avi
Формат : AVI
Формат/Информация : Audio Video Interleave
Размер файла : 1,00 Гбайт
Продолжительность : 1 ч. 10 м.
Общий поток : 2026 Кбит/сек
Программа кодирования : VirtualDubMod 1.5.10.3 | www.virtualdub-fr.org || (build 2550/release)
Видео
Идентификатор : 0
Формат : MPEG-4 Visual
Профиль формата : Advanced Simple@L5
Параметр BVOP формата : 2
Параметр QPel формата : Нет
Параметр GMC формата : Без точки перехода
Параметр матрицы формата : Default (MPEG)
Идентификатор кодека : XVID
Идентификатор кодека/Подсказка : XviD
Продолжительность : 1 ч. 10 м.
Битрейт : 1632 Кбит/сек
Ширина : 704 пикселя
Высота : 400 пикселей
Соотношение сторон : 16:9
Частота кадров : 25,000 кадров/сек
Цветовое пространство : YUV
Субдискретизация насыщенности : 4:2:0
Битовая глубина : 8 бит
Тип развёртки : Прогрессивная
Метод сжатия : С потерями
Бит/(Пиксели*Кадры) : 0.232
Размер потока : 826 Мбайт (81%)
Библиотека кодирования : XviD 64
Аудио
Идентификатор : 1
Формат : AC-3
Формат/Информация : Audio Coding 3
Расширение режима : CM (complete main)
Идентификатор кодека : 2000
Продолжительность : 1 ч. 10 м.
Вид битрейта : Постоянный
Битрейт : 384 Кбит/сек
Каналы : 6 каналов
Расположение каналов : Front: L C R, Side: L R, LFE
Частота : 48,0 КГц
Битовая глубина : 16 бит
Метод сжатия : С потерями
Размер потока : 194 Мбайт (19%)
Выравнивание : Разделение по промежуткам
Продолжительность промежутка : 40 мс. (1,00 видеокадр)
Время предзагрузки промежутка : 500 мс.
Общее
Полное имя : Adam-Le.Corsaire.(2.iz.3).2012.HDTVRip.avi
Формат : AVI
Формат/Информация : Audio Video Interleave
Размер файла : 731 Мбайт
Продолжительность : 50 м.
Общий поток : 2033 Кбит/сек
Программа кодирования : VirtualDubMod 1.5.10.3 | www.virtualdub-fr.org || (build 2550/release)
Видео
Идентификатор : 0
Формат : MPEG-4 Visual
Профиль формата : Advanced Simple@L5
Параметр BVOP формата : 2
Параметр QPel формата : Нет
Параметр GMC формата : Без точки перехода
Параметр матрицы формата : Default (MPEG)
Идентификатор кодека : XVID
Идентификатор кодека/Подсказка : XviD
Продолжительность : 50 м.
Битрейт : 1639 Кбит/сек
Ширина : 704 пикселя
Высота : 400 пикселей
Соотношение сторон : 16:9
Частота кадров : 25,000 кадров/сек
Цветовое пространство : YUV
Субдискретизация насыщенности : 4:2:0
Битовая глубина : 8 бит
Тип развёртки : Прогрессивная
Метод сжатия : С потерями
Бит/(Пиксели*Кадры) : 0.233
Размер потока : 589 Мбайт (81%)
Библиотека кодирования : XviD 64
Аудио
Идентификатор : 1
Формат : AC-3
Формат/Информация : Audio Coding 3
Расширение режима : CM (complete main)
Идентификатор кодека : 2000
Продолжительность : 50 м.
Вид битрейта : Постоянный
Битрейт : 384 Кбит/сек
Каналы : 6 каналов
Расположение каналов : Front: L C R, Side: L R, LFE
Частота : 48,0 КГц
Битовая глубина : 16 бит
Метод сжатия : С потерями
Размер потока : 138 Мбайт (19%)
Выравнивание : Разделение по промежуткам
Продолжительность промежутка : 40 мс. (1,00 видеокадр)
Время предзагрузки промежутка : 500 мс.
Общее
Полное имя : Adam-Le.Corsaire.(3.iz.3).2012.HDTVRip.avi
Формат : AVI
Формат/Информация : Audio Video Interleave
Размер файла : 711 Мбайт
Продолжительность : 48 м.
Общий поток : 2045 Кбит/сек
Программа кодирования : VirtualDubMod 1.5.10.3 | www.virtualdub-fr.org || (build 2550/release)
Видео
Идентификатор : 0
Формат : MPEG-4 Visual
Профиль формата : Advanced Simple@L5
Параметр BVOP формата : 2
Параметр QPel формата : Нет
Параметр GMC формата : Без точки перехода
Параметр матрицы формата : Default (MPEG)
Идентификатор кодека : XVID
Идентификатор кодека/Подсказка : XviD
Продолжительность : 48 м.
Битрейт : 1651 Кбит/сек
Ширина : 704 пикселя
Высота : 400 пикселей
Соотношение сторон : 16:9
Частота кадров : 25,000 кадров/сек
Цветовое пространство : YUV
Субдискретизация насыщенности : 4:2:0
Битовая глубина : 8 бит
Тип развёртки : Прогрессивная
Метод сжатия : С потерями
Бит/(Пиксели*Кадры) : 0.234
Размер потока : 574 Мбайт (81%)
Библиотека кодирования : XviD 64
Аудио
Идентификатор : 1
Формат : AC-3
Формат/Информация : Audio Coding 3
Расширение режима : CM (complete main)
Параметр Endianness формата : Big
Идентификатор кодека : 2000
Продолжительность : 48 м.
Вид битрейта : Постоянный
Битрейт : 384 Кбит/сек
Каналы : 6 каналов
Расположение каналов : Front: L C R, Side: L R, LFE
Частота : 48,0 КГц
Битовая глубина : 16 бит
Метод сжатия : С потерями
Размер потока : 134 Мбайт (19%)
Выравнивание : Разделение по промежуткам
Продолжительность промежутка : 40 мс. (1,00 видеокадр)
Время предзагрузки промежутка : 500 мс.
Общее
Полное имя : Adam-Le.Corsaire.(Interview-Burlaka).2012.HDTVRip.avi
Формат : AVI
Формат/Информация : Audio Video Interleave
Размер файла : 92,1 Мбайт
Продолжительность : 9 м. 14 с.
Общий поток : 1395 Кбит/сек
Программа кодирования : VirtualDubMod 1.5.10.3 | www.virtualdub-fr.org || (build 2550/release)
Библиотека кодирования : VirtualDubMod build 2550/release
Видео
Идентификатор : 0
Формат : MPEG-4 Visual
Профиль формата : Advanced Simple@L5
Параметр BVOP формата : 2
Параметр QPel формата : Нет
Параметр GMC формата : Без точки перехода
Параметр матрицы формата : Default (MPEG)
Идентификатор кодека : XVID
Идентификатор кодека/Подсказка : XviD
Продолжительность : 9 м. 14 с.
Битрейт : 1193 Кбит/сек
Ширина : 704 пикселя
Высота : 400 пикселей
Соотношение сторон : 16:9
Частота кадров : 25,000 кадров/сек
Цветовое пространство : YUV
Субдискретизация насыщенности : 4:2:0
Битовая глубина : 8 бит
Тип развёртки : Прогрессивная
Метод сжатия : С потерями
Бит/(Пиксели*Кадры) : 0.170
Размер потока : 78,8 Мбайт (86%)
Библиотека кодирования : XviD 64
Аудио
Идентификатор : 1
Формат : AC-3
Формат/Информация : Audio Coding 3
Расширение режима : CM (complete main)
Идентификатор кодека : 2000
Продолжительность : 9 м. 14 с.
Вид битрейта : Постоянный
Битрейт : 192 Кбит/сек
Каналы : 2 канала
Расположение каналов : Front: L R
Частота : 48,0 КГц
Битовая глубина : 16 бит
Метод сжатия : С потерями
Размер потока : 12,7 Мбайт (14%)
Выравнивание : Разделение по промежуткам
Продолжительность промежутка : 40 мс. (1,00 видеокадр)
Время предзагрузки промежутка : 500 мс.
Общее
Полное имя : Adam-Le.Corsaire.(Interview-Zaitseva).2012.HDTVRip.avi
Формат : AVI
Формат/Информация : Audio Video Interleave
Размер файла : 43,2 Мбайт
Продолжительность : 4 м. 18 с.
Общий поток : 1402 Кбит/сек
Программа кодирования : VirtualDubMod 1.5.10.3 | www.virtualdub-fr.org || (build 2550/release)
Библиотека кодирования : VirtualDubMod build 2550/release
Видео
Идентификатор : 0
Формат : MPEG-4 Visual
Профиль формата : Advanced Simple@L5
Параметр BVOP формата : 2
Параметр QPel формата : Нет
Параметр GMC формата : Без точки перехода
Параметр матрицы формата : Default (MPEG)
Идентификатор кодека : XVID
Идентификатор кодека/Подсказка : XviD
Продолжительность : 4 м. 18 с.
Битрейт : 1200 Кбит/сек
Ширина : 704 пикселя
Высота : 400 пикселей
Соотношение сторон : 16:9
Частота кадров : 25,000 кадров/сек
Цветовое пространство : YUV
Субдискретизация насыщенности : 4:2:0
Битовая глубина : 8 бит
Тип развёртки : Прогрессивная
Метод сжатия : С потерями
Бит/(Пиксели*Кадры) : 0.170
Размер потока : 36,9 Мбайт (86%)
Библиотека кодирования : XviD 64
Аудио
Идентификатор : 1
Формат : AC-3
Формат/Информация : Audio Coding 3
Расширение режима : CM (complete main)
Идентификатор кодека : 2000
Продолжительность : 4 м. 18 с.
Вид битрейта : Постоянный
Битрейт : 192 Кбит/сек
Каналы : 2 канала
Расположение каналов : Front: L R
Частота : 48,0 КГц
Битовая глубина : 16 бит
Метод сжатия : С потерями
Размер потока : 5,91 Мбайт (14%)
Выравнивание : Разделение по промежуткам
Продолжительность промежутка : 40 мс. (1,00 видеокадр)
Время предзагрузки промежутка : 500 мс.

Скриншоты




Показать сообщения:    

Текущее время: 10-Дек 02:16

Часовой пояс: UTC + 3


Вы не можете начинать темы
Вы не можете отвечать на сообщения
Вы не можете редактировать свои сообщения
Вы не можете удалять свои сообщения
Вы не можете голосовать в опросах
Вы не можете прикреплять файлы к сообщениям
Вы не можете скачивать файлы