Джоби Тэлбот - Алиса в стране чудес (Кристофер Уилдон) /Joby Talbot - Alice’s Adventures in Wonderland - Barry Wordsworth (Christopher Wheeldon) [2011, Modern ballet, DVDRip]


 

[Цитировать]

Алиса в стране чудес / Alice’s Adventures in Wonderland
Год выпуска: 2011
Страна-производитель: Великобритания
Жанр: modern ballet
Продолжительность: 02:01:17
Композитор: Джоби Талбот / Joby Talbot
Дирижер: Барри Уордсворт / Barry Wordsworth
Исполнители музыки: Royal Opera House Orchestra
Режиссер/Хореограф: Кристофер Уилдон / Christopher Wheeldon
Исполнители:
Alice – Lauren Cuthbertson
Jack / Knave of Hearts – Sergei Polunin
Lewis Carroll / White Rabbit – Edward Watson
Mother / Queen of Hearts – Zenaida Yanowsky
Father / King of Hearts – Christopher Saunders
Magician / Mad Hatter – Steven McRae
Duchess – Simon Russell Beale
Royal Ballet
Описание:
A new full-length ballet created by Christopher Wheeldon for The Royal Ballet. Alice’s Adventures in Wonderland brings a famous story and its equally famous characters to the ballet stage. The Victorian childhood of Lewis Carroll’s Alice and her encounters with extraordinary people, strange creatures and unusual events gives Wheeldon an entire new world to create. Written by Joby Talbot in 2010 the score is the the first full-length ballet score for The Royal Ballet for 20 years. With a scenario by Nicholas Wright (his adaptations have included His Dark Materials at the NT), and designs by the internationally acclaimed Bob Crowley, this is a compelling creative team indeed. Alice's Adventures in Wonderland was commisisoned by the Royal Ballet, Covent Garden, London and the National Ballet of Canada.
Доп. информация:
Рип сделан с раздачи DVD-9 на Teatrix
Огромное спасибо автору panaleksei ®
Все раздачи этого композитора на трекере
Сэмпл: http://multi-up.com/674399
Качество видео: DVDRip
Формат/Контейнер: MKV
Видео кодек: H.264
Аудио кодек: AC3
Видео поток: MPEG4 Video (H264) 720x400 29.97fps 2180 Kbps
Аудио поток: Dolby AC3 48000Hz 6ch 384 Kbps

Mediainfo

Format : Matroska
Format version : Version 1
File size : 2.17 GiB
Duration : 2h 1mn
Overall bit rate : 2 567 Kbps
Encoded date : UTC 2012-03-07 15:01:54
Writing application : mkvmerge v2.4.2 ('Oh My God') built on Jan 18 2009 17:30:28
Writing library : libebml v0.7.7 + libmatroska v0.8.1
Video
ID : 1
Format : AVC
Format/Info : Advanced Video Codec
Format profile : High@L3.1
Format settings, CABAC : Yes
Format settings, ReFrames : 8 frames
Codec ID : V_MPEG4/ISO/AVC
Duration : 2h 1mn
Bit rate : 2 180 Kbps
Width : 720 pixels
Height : 400 pixels
Display aspect ratio : 16:9
Frame rate : 29.970 fps
Color space : YUV
Chroma subsampling : 4:2:0
Bit depth : 8 bits
Scan type : Progressive
Bits/(Pixel*Frame) : 0.253
Stream size : 1.81 GiB (83%)
Writing library : x264 core 119 r2106 07efeb4
Encoding settings : cabac=1 / ref=8 / deblock=1:-1:-1 / analyse=0x3:0x133 / me=umh / subme=10 / psy=1 / psy_rd=1.00:0.10 / mixed_ref=1 / me_range=16 / chroma_me=1 / trellis=2 / 8x8dct=1 / cqm=0 / deadzone=21,11 / fast_pskip=0 / chroma_qp_offset=-3 / threads=6 / sliced_threads=0 / nr=0 / decimate=1 / interlaced=0 / bluray_compat=0 / constrained_intra=0 / bframes=3 / b_pyramid=2 / b_adapt=2 / b_bias=0 / direct=3 / weightb=1 / open_gop=0 / weightp=2 / keyint=250 / keyint_min=25 / scenecut=40 / intra_refresh=0 / rc_lookahead=50 / rc=2pass / mbtree=1 / bitrate=2180 / ratetol=1.0 / qcomp=0.60 / qpmin=0 / qpmax=69 / qpstep=4 / cplxblur=20.0 / qblur=0.5 / ip_ratio=1.40 / aq=1:1.00
Language : English
Default : Yes
Forced : No
Audio
ID : 2
Format : AC-3
Format/Info : Audio Coding 3
Mode extension : CM (complete main)
Codec ID : A_AC3
Duration : 2h 1mn
Bit rate mode : Constant
Bit rate : 384 Kbps
Channel(s) : 6 channels
Channel positions : Front: L C R, Side: L R, LFE
Sampling rate : 48.0 KHz
Bit depth : 16 bits
Compression mode : Lossy
Stream size : 333 MiB (15%)
Default : Yes
Forced : No

Скриншот с названием

Скриншоты




Показать сообщения:    

Текущее время: 04-Дек 00:52

Часовой пояс: UTC + 3


Вы не можете начинать темы
Вы не можете отвечать на сообщения
Вы не можете редактировать свои сообщения
Вы не можете удалять свои сообщения
Вы не можете голосовать в опросах
Вы не можете прикреплять файлы к сообщениям
Вы не можете скачивать файлы