Нас поздравляет мир. Ансамблю танца им. Игоря Моисеева - 75 [2012, народный танец, TVRip]


 

[Цитировать]

Нас поздравляет мир. Ансамблю танца им. Игоря Моисеева - 75 [2012, народный танец, TVRip]
Год выпуска: 2012
Страна-производитель: Россия
Жанр: народный танец
Продолжительность: 01:22:20
Язык: русский
Перевод: не трубуется
Субтитры: нет
Режиссер/Хореограф: Елена Щербакова, Виктор Никитушкин, Виталий Крив
Исполнители: Национальный академический ансамбль танца Украины им. П. Вирского, Ансамбль танца Республики Казахстан "Салтанат", Ансамбль танца Республики Беларусь, Азербайджанский ансамбль песни и танца им. Ф. Амирова, сербский национальный ансамбль народного танца "Коло", ансамбль танца "Гонвед" (Венгрия), Болгарский ансамбль танца им. Ф. Кутева, ансамбль "Мазовше" (Польша). Также вошли видеофрагменты выступлений Ансамбля Игоря Моисеева в разных регионах России и за рубежом разных лет.
Треклист: 1 track
Описание: Телеверсия юбилейного концерта. Запись в КЗЧ. Программа посвящена 75-летию коллектива, в которой принимают участие сам Ансамбль имени Игоря Моисеева и коллективы из ближнего и дальнего зарубежья: Национальный академический ансамбль танца Украины им. П. Вирского, Ансамбль танца Республики Казахстан "Салтанат", Ансамбль танца Республики Беларусь, Азербайджанский ансамбль песни и танца им. Ф. Амирова, сербский национальный ансамбль народного танца "Коло", ансамбль танца "Гонвед" (Венгрия), Болгарский ансамбль танца им. Ф. Кутева, ансамбль "Мазовше" (Польша). Также вошли видеофрагменты выступлений Ансамбля Игоря Моисеева в разных регионах России и за рубежом разных лет.
Качество видео: TVRip
Формат/Контейнер: MPEG4
Видео кодек: XviD
Аудио кодек: MP3
Видео поток: XviD, 1473 Кбит/с, 704x400, 16:9, 25.000 fps
Аудио поток: MP3, 2 ch, 192 Кбит/с
Нас поздравляет Россия. Ансамблю народного танца им. Игоря Моисеева - 75

Скриншоты

MediaInfo

General
Complete name : C:\фильмы\Nas.pozdravlyaet.mir.2012.XviD.IPTVRip.Files-x.avi
Format : AVI
Format/Info : Audio Video Interleave
File size : 987 MiB
Duration : 1h 22mn
Overall bit rate : 1 676 Kbps
Writing application : VirtualDubMod 1.5.10.3 | www.virtualdub-fr.org || (build 2550/release)
Writing library : VirtualDubMod build 2550/release
Video
ID : 0
Format : MPEG-4 Visual
Format profile : Advanced Simple@L5
Format settings, BVOP : 1
Format settings, QPel : No
Format settings, GMC : No warppoints
Format settings, Matrix : Default (H.263)
Codec ID : XVID
Codec ID/Hint : XviD
Duration : 1h 22mn
Bit rate : 1 474 Kbps
Width : 704 pixels
Height : 400 pixels
Display aspect ratio : 16:9
Frame rate : 25.000 fps
Color space : YUV
Chroma subsampling : 4:2:0
Bit depth : 8 bits
Scan type : Progressive
Compression mode : Lossy
Bits/(Pixel*Frame) : 0.209
Stream size : 868 MiB (88%)
Writing library : XviD 1.2.1 (UTC 2008-12-04)
Audio
ID : 1
Format : MPEG Audio
Format version : Version 1
Format profile : Layer 3
Mode : Joint stereo
Mode extension : MS Stereo
Codec ID : 55
Codec ID/Hint : MP3
Duration : 1h 22mn
Bit rate mode : Constant
Bit rate : 192 Kbps
Channel(s) : 2 channels
Sampling rate : 48.0 KHz
Compression mode : Lossy
Stream size : 113 MiB (11%)
Alignment : Aligned on interleaves
Interleave, duration : 40 ms (1.00 video frame)
Interleave, preload duration : 504 ms
Writing library : LAME3.98r
Encoding settings : -m j -V 4 -q 2 -lowpass 18.6 -b 192



Показать сообщения:    

Текущее время: 07-Дек 13:38

Часовой пояс: UTC + 3


Вы не можете начинать темы
Вы не можете отвечать на сообщения
Вы не можете редактировать свои сообщения
Вы не можете удалять свои сообщения
Вы не можете голосовать в опросах
Вы не можете прикреплять файлы к сообщениям
Вы не можете скачивать файлы