Валерий Гаврилин -Анюта (Александр Белинский, Владимир Васильев) [1982, Фильм балет, TVRip]


 

[Цитировать]

Анюта
Год выпуска: 1982
Страна-производитель: СССР
Жанр: Фильм балет
Продолжительность: 01:07:39
Режиссер/Хореограф: Александр Белинский, Владимир Васильев
Композитор: Валерий Гаврилин
Оркекстр : Ленинградской Государственной филармонии им. Шостаковича
Дирижер : Станислав Горковенко
Исполнители: Екатерина Максимова, Владимир Васильев, Гали Абайдулов, Джон Марковский, Анатолий Гридин, Марат Даукаев, Кира Кириллова, Дима Карасев, Никита Щеглов
Описание: По рассказу А. П. Чехова «Анна на шее» с Екатериной Максимовой в роли Анюты.
Она создает пленительный образ красоты — живой и очень хрупкой. Ее «Анюта» — просто слабая женщина, которая тянется к празднику, ей хочется веселья, и она принимает мнимое за подлинное, мишуру — за настоящее сияние счастья.

Доп. информация: КИНО-ТЕАТР.ru IMDb 4.6(9)
Сценарист: Александр Белинский
Оператор: Генрих Маранджян
Художник: Белла Маневич
Производство: Лентелефильм

Все раздачи этого фильма балета
Качество видео: TVRip
Формат видео: MPEG2
Видео поток: MPEG2 Video 720x576 (4:3) 25.00fps 4456 Кбит/сек
Аудио поток: MPEG Audio 48000Hz stereo192kbps

MediaInfo

Общее
Полное имя : D:\TORENT4\ANYuTA.1982.mpg
Формат : MPEG-PS
Размер файла : 2,24 Гбайт
Продолжительность : 01:07:39
Режим общего битрейта : Переменный
Общий поток : 4742 Кбит/сек
Видео
Идентификатор : 224 (0xE0)
Формат : MPEG Video
Версия формата : Version 2
Профиль формата : Main@Main
Параметр BVOP формата : Да
Параметр матрицы формата : Выборочная
Продолжительность : 01:07:39
Вид битрейта : Переменный
Битрейт : 4456 Кбит/сек
Максимальный битрейт : 9400 Кбит/сек
Ширина : 720 пикселей
Высота : 576 пикселей
Соотношение сторон : 4:3
Частота кадров : 25,000 кадров/сек
Стандарт вещания : PAL
Цветовое пространство : YUV
Субдискретизация насыщенности : 4:2:0
Битовая глубина : 8 бит
Тип развёртки : Чересстрочная
Порядок развёртки : Верхнее поле первое
Метод сжатия : С потерями
Бит/(Пиксели*Кадры) : 0.430
Размер потока : 2,11 Гбайт (94%)
Основные цвета : BT.470-2 System B, BT.470-2 System G
Характеристики трансфера : BT.470-2 System B, BT.470-2 System G
Коэффициенты матрицы : BT.470-2 System B, BT.470-2 System G
Аудио
Идентификатор : 192 (0xC0)
Формат : MPEG Audio
Версия формата : Version 1
Профиль формата : Layer 2
Продолжительность : 01:07:39
Вид битрейта : Постоянный
Битрейт : 192 Кбит/сек
Каналы : 2 канала
Частота : 48,0 КГц
Метод сжатия : С потерями
Размер потока : 92,9 Мбайт (4%)

Скриншоты




Показать сообщения:    

Текущее время: 03-Дек 09:45

Часовой пояс: UTC + 3


Вы не можете начинать темы
Вы не можете отвечать на сообщения
Вы не можете редактировать свои сообщения
Вы не можете удалять свои сообщения
Вы не можете голосовать в опросах
Вы не можете прикреплять файлы к сообщениям
Вы не можете скачивать файлы